↑↓torrent.by
Поиск
Логин:  Регистрация
Пароль:

Деньги решают все / Money talks (1997) WEB-DLRip-AVC от DoMiNo | P

download Скачать торрент-файл   magnet Магнитная ссылка Размер: 745.26 MB Добавлен: 2024-05-26 05:00
Пиры будут получены из сети DHT
Последний сидер был замечен 2024-05-26 12:39
Информация о фильме Название: Деньги решают все Оригинальное название: Money Talks Год выхода: 1997 Жанр: комедия, боевик Режиссер: Бретт Рэтнер В ролях: Крис Такер, Чарли Шин, Хэзер Локлир, Элиз Нил, Пол Сорвино, Дэвид Ли МакЛэйн, Виктор Феррерира, Гари Бриггс, Ларри Хэнкин, Нэйтан Андерсон О фильме: Криминальный телерепортер Джеймс Рассел становится виновником того, что мелкого чернокожего спекулянта Фрэнка Хэтчета сначала арестовывают, а потом обвиняют в убийстве полицейских при побеге из тюремного автобуса. Скрывающийся от полиции Фрэнк вызывает репортера на встречу и требует от него помощи. Джеймс соглашается при условии, что беглец даст ему эксклюзивное сенсационное интервью... Дальше все как в кино: погони, перестрелки и хэппи энд... Страна: США / New Line Cinema Продолжительность: 01:35:43 Перевод: Профессиональный (многоголосый, закадровый) - ТК Россия Субтитры: English Файл Формат: Matroska Качество: WEB-DLRip-AVC Видео: 736x308 at 23.976 fps, x264@L4.1, ~1008 kbps, 0.185 bpp Аудио: AAC, 2 ch, ~80 kbps - | Русский | - Формат субтитров: softsub (SRT) ***Релиз от: -=DoMiNo=-
[+] M/Ix264 : frame I:1224 Avg QP:17.33 size: 27176 x264 : frame P:30812 Avg QP:18.77 size: 11005 x264 : frame B:105670 Avg QP:20.18 size: 3322 x264 : consecutive B-frames: 2.0% 2.8% 8.0% 30.0% 16.6% 31.3% 4.5% 2.5% 1.0% 0.5% 0.3% 0.4% 0.1% General Format : Matroska Format version : Version 4 File size : 745 MiB Duration : 1 h 35 min Overall bit rate : 1 088 kb/s Movie name : Деньги решают все.(1997).WEB-DLRip-AVC. Encoded date : UTC 2021-05-22 15:10:06 Writing application : mkvmerge v56.1.0 ('My Friend') 64-bit Writing library : libebml v1.4.2 + libmatroska v1.6.4 Cover : Yes Attachments : Cover.jpg / Cover 2.jpg Video ID : 1 Format : AVC Format/Info : Advanced Video Codec Format profile : High@L4.1 Format settings : CABAC / 14 Ref Frames Format settings, CABAC : Yes Format settings, Reference : 14 frames Codec ID : V_MPEG4/ISO/AVC Duration : 1 h 35 min Bit rate : 1 008 kb/s Width : 736 pixels Height : 308 pixels Display aspect ratio : 2.40:1 Frame rate mode : Constant Frame rate : 23.976 (24000/1001) FPS Color space : YUV Chroma subsampling : 4:2:0 Bit depth : 8 bits Scan type : Progressive Bits/(Pixel*Frame) : 0.185 Stream size : 690 MiB (93%) Title : -=DoMiNo=- Writing library : x264 core 163 r3059 b684ebe Encoding settings : cabac=1 / ref=14 / deblock=1:-2:-1 / analyse=0x3:0x133 / me=umh / subme=11 / psy=1 / psy_rd=1.00:0.08 / mixed_ref=1 / me_range=48 / chroma_me=1 / trellis=2 / 8x8dct=1 / cqm=0 / deadzone=21,11 / fast_pskip=0 / chroma_qp_offset=-3 / threads=16 / lookahead_threads=2 / sliced_threads=0 / nr=0 / decimate=0 / interlaced=0 / bluray_compat=0 / constrained_intra=0 / bframes=12 / b_pyramid=2 / b_adapt=2 / b_bias=0 / direct=3 / weightb=1 / open_gop=0 / weightp=2 / keyint=250 / keyint_min=23 / scenecut=40 / intra_refresh=0 / rc_lookahead=60 / rc=2pass / mbtree=0 / bitrate=1008 / ratetol=1.0 / qcomp=0.65 / qpmin=0 / qpmax=69 / qpstep=4 / cplxblur=20.0 / qblur=0.5 / vbv_maxrate=50000 / vbv_bufsize=62500 / nal_hrd=none / filler=0 / ip_ratio=1.04 / pb_ratio=1.30 / aq=3:1.00 Language : English Default : Yes Forced : No Color range : Limited Color primaries : BT.709 Transfer characteristics : BT.709 Matrix coefficients : BT.709 Audio ID : 2 Format : AAC LC SBR Format/Info : Advanced Audio Codec Low Complexity with Spectral Band Replication Commercial name : HE-AAC Format settings : Explicit Codec ID : A_AAC-2 Duration : 1 h 35 min Bit rate : 78.7 kb/s Channel(s) : 2 channels Channel layout : L R Sampling rate : 48.0 kHz Frame rate : 23.438 FPS (2048 SPF) Compression mode : Lossy Stream size : 53.9 MiB (7%) Title : MVO, РТР_Ansent Language : Russian Default : Yes Forced : Yes Text ID : 3 Format : UTF-8 Codec ID : S_TEXT/UTF8 Codec ID/Info : UTF-8 Plain Text Duration : 1 h 35 min Bit rate : 81 b/s Count of elements : 2174 Stream size : 57.0 KiB (0%) Language : English Default : No Forced : No Menu 00:00:00.000 : Main Title 00:02:45.000 : Busted at the Car Wash 00:07:16.000 : Behind Bars 00:11:01.000 : The Escape 00:16:33.000 : On The Run 00:22:11.000 : Teaming Up 00:27:59.000 : "Ebony Man of the Month" 00:29:36.000 : Vic Damone 00:34:19.000 : Sweeps Week 00:36:56.000 : House Call 00:41:43.000 : A Night on the Town 00:47:07.000 : Paying Aaron a Visit 00:53:05.000 : Breakfast with the In-Laws 00:57:46.000 : Auto Auction 01:03:17.000 : Test Drive 01:07:41.000 : "It can't get no righter" 01:12:24.000 : Set Up at the Coliseum 01:15:15.000 : "Where are the diamonds?" 01:16:56.000 : The Chase is On 01:20:54.000 : Light on the Subject 01:23:27.000 : Fire in the Press Box 01:26:07.000 : "Come and get it!" 01:28:28.000 : "Peace out" 01:31:04.000 : End Credits
[+] Скриншоты

Всего файлов в раздаче: 1 
Деньги решают все.(1997).WEB-DLRip-AVC.[-=DoMiNo=-].mkv745.26 MB

Похожие раздачи по запросу - Деньги
Вчера magnet Шоу восьми / Игра на деньги / The 8 Show / Deo Eiteu Syo [S01] (2024) WEB-DLRip от MegaPeer | TVShows 5.27 GB ↑ 0 ↓ 0
2024-06-06 magnet Шоу восьми / Игра на деньги / The 8 Show / Deo Eiteu Syo [S01] (2024) WEB-DL 1080p | TVShows 22.71 GB ↑ 0 ↓ 0
2024-05-26 magnet Деньги решают всё / Money Talks (1997) BDRip 720p от msltel | P, P2, A 5.14 GB ↑ 0 ↓ 0
2024-05-25 magnet Деньги решают всё / Money Talks (1997) BDRip-AVC от msltel | P, P2, A 2.88 GB ↑ 0 ↓ 0
2023-11-19 magnet Дурные деньги / Dumb Money (2023) WEB-DL 1080p | D, A | TS, Яроцкий 1К5.66 GB ↑ 0 ↓ 0

Кто качает (только для создателя раздачи и модераторов): Локальные пиры отсутствуют

Комментарии


Зарегистрируйтесь чтобы добавить комментарий
Торрент клиент
byTorrent - программа для загрузки торрент-файлов.

Скачать byTorrent.exe (1,5 МБ)

Скачать byTorrent.zip (0,6 МБ)

Поддержи torrent.by
российских рублей
(300 российских рублей это 4$)

Обратная связь rss

End game ©