↑↓torrent.by
Поиск
Логин:  Регистрация
Пароль:

Бездна / The Abyss (1989) HybridRip-AVC от ExKinoRay | P | Special Edition | Open Matte

download Скачать торрент-файл   magnet Магнитная ссылка Размер: 1.45 GB Добавлен: 2024-05-26 05:00
Пиры будут получены из сети DHT
Последний сидер был замечен 2024-05-27 08:17
Информация о фильме Название: Бездна Оригинальное название: The Abyss Год выхода: 1989 Жанр: Фантастика, триллер, драма, приключения Режиссер: Джеймс Кэмерон В ролях: Майкл Бин, Тодд Графф, Джей Си Куинн, Джон Бедфорд Ллойд, Мэри Элизабет Мастрантонио, Кимберли Скотт, Эд Харрис, Кристофер Мёрфи, Дик Уорлок, Джимми Рэй Уикс, Дж. Кеннет Кемпбелл, Кен Дженкинс, Питер Рэтрей, Майкл Бич, Брэд Салливан, Филлип Дарлингтон, Джо Фараго О фильме: Американская атомная подводная лодка "Монтана" была атакована неизвестным противником и затонула на огромной глубине. Спасать экипаж подлодки приказано команде глубоководной станции, которая занималась поисками нефти. Для усиления спасательной экспедиции к ним отправлена группа "морских котиков", а также конструктор станции Линдси Бригман, бывшая жена начальника станции Бада Бригмана. Этой пестрой, постоянно ругающейся команде довелось узнать, что за таинственная сила погубила "Монтану". И первой их реакцией было желание не верить собственным глазам. Страна: США Студия: Twentieth Century Fox Film Corporation, Pacific Western, Lightstorm Entertainment Продолжительность: 02:50:53 Перевод: Профессиональный многоголосый Файл Формат: MKV Качество: HybridRip-AVC Видео: MPEG-4 AVC, 704x396, 1048 Кбит/с Аудио #1: AAC-HE, 2 ch, 84 Кбит/с | MVO, Киномания со вставками НТВ+ | Аудио #2: AAC-HE, 2 ch, 84 Кбит/с | MVO НТВ+ | Субтитры: Русские
[+] MIОбщее Уникальный идентификатор : 219095250525363551866344228578125446851 (0xA4D435DA8B854805287BC6B3665C7EC3) Полное имя : D:MOVIESBezdna.1989.HybridRip-AVC.ExKinoRay.mkv Формат : Matroska Версия формата : Version 4 Размер файла : 1,45 Гбайт Продолжительность : 2 ч. 50 мин. Общий битрейт : 1 218 Кбит/сек Частота кадров : 23,976 кадра/сек Дата кодирования : 2024-05-25 16:37:33 UTC Программа кодирования : mkvmerge v45.0.0 ('Heaven in Pennies') 64-bit Библиотека кодирования : libebml v1.3.10 + libmatroska v1.5.2 Видео Идентификатор : 1 Формат : AVC Формат/Информация : Advanced Video Codec Профиль формата : High@L4.1 Настройки формата : CABAC / 11 Ref Frames Параметр CABAC формата : Да Параметр RefFrames формата : 11 кадров Идентификатор кодека : V_MPEG4/ISO/AVC Продолжительность : 2 ч. 50 мин. Битрейт : 1 048 Кбит/сек Ширина : 704 пикселя Высота : 396 пикселей Соотношение сторон дисплея : 16:9 Режим частоты кадров : Постоянный Частота кадров : 23,976 (24000/1001) кадра/сек Цветовое пространство : YUV Цветовая субдискретизация : 4:2:0 Битовая глубина : 8 бит Тип развёртки : Прогрессивная Бит/(Пиксели*Кадры) : 0.157 Размер потока : 1,25 Гбайт (86%) Библиотека кодирования : x264 core 164 r3190 7ed753b Параметры библиотеки кодирования : cabac=1 / ref=11 / deblock=1:-2:-1 / analyse=0x3:0x133 / me=umh / subme=10 / psy=1 / psy_rd=1.05:0.10 / mixed_ref=1 / me_range=32 / chroma_me=1 / trellis=2 / 8x8dct=1 / cqm=0 / deadzone=21,11 / fast_pskip=0 / chroma_qp_offset=-3 / threads=6 / lookahead_threads=1 / sliced_threads=0 / nr=0 / decimate=0 / interlaced=0 / bluray_compat=0 / constrained_intra=0 / bframes=10 / b_pyramid=2 / b_adapt=2 / b_bias=0 / direct=3 / weightb=1 / open_gop=0 / weightp=2 / keyint=240 / keyint_min=23 / scenecut=40 / intra_refresh=0 / rc=2pass / mbtree=0 / bitrate=1048 / ratetol=1.0 / qcomp=0.60 / qpmin=0 / qpmax=69 / qpstep=4 / cplxblur=20.0 / qblur=0.5 / ip_ratio=1.40 / pb_ratio=1.30 / aq=3:1.00 Язык : Английский По умолчанию : Да Принудительно : Нет Цветовой диапазон : Limited Основные цвета : BT.709 Характеристики трансфера : BT.709 Коэффициенты матрицы : BT.709 Аудио #1 Идентификатор : 2 Формат : AAC LC SBR Формат/Информация : Advanced Audio Codec Low Complexity with Spectral Band Replication Коммерческое название : HE-AAC Настройки формата : Explicit Идентификатор кодека : A_AAC-2 Продолжительность : 2 ч. 50 мин. Битрейт : 84,0 Кбит/сек Канал(-ы) : 2 канала Расположение каналов : L R Частота дискретизации : 48,0 КГц Частота кадров : 23,438 кадра/сек (2048 SPF) Метод сжатия : С потерями Задержка видео : 31 мс. Размер потока : 103 Мбайт (7%) Заголовок : MVO Kinomania Язык : Русский По умолчанию : Да Принудительно : Нет Аудио #2 Идентификатор : 3 Формат : AAC LC SBR Формат/Информация : Advanced Audio Codec Low Complexity with Spectral Band Replication Коммерческое название : HE-AAC Настройки формата : Explicit Идентификатор кодека : A_AAC-2 Продолжительность : 2 ч. 50 мин. Битрейт : 84,0 Кбит/сек Канал(-ы) : 2 канала Расположение каналов : L R Частота дискретизации : 48,0 КГц Частота кадров : 23,438 кадра/сек (2048 SPF) Метод сжатия : С потерями Задержка видео : 31 мс. Размер потока : 103 Мбайт (7%) Заголовок : MVO NTV Plus Язык : Русский По умолчанию : Нет Принудительно : Нет Текст Идентификатор : 4 Формат : UTF-8 Идентификатор кодека : S_TEXT/UTF8 Идентификатор кодека/Информация : UTF-8 Plain Text Продолжительность : 2 ч. 43 мин. Битрейт : 78 бит/сек Частота кадров : 0,162 кадр/сек Число элементов : 1588 Размер потока : 93,3 КиБ (0%) Язык : Русский По умолчанию : Нет Принудительно : Нет
[+] Скриншоты

Всего файлов в раздаче: 1 
Bezdna.1989.HybridRip-AVC.ExKinoRay.mkv1.45 GB

Похожие раздачи по запросу - Бездна
2024-06-10 magnet Мег 2: Бездна / Meg 2: The Trench (2023) BDRip-HEVC 1080p от RIPS CLUB | D, P, A 6.81 GB ↑ 0 ↓ 3
2024-05-27 magnet Бездна / The Abyss (1989) BDRip-HEVC 1080p от RIPS CLUB | P, P2, A, L1 | USA Transfer | Special Edition 14.66 GB ↑ 0 ↓ 0
2024-03-19 magnet Бездна / The Abyss (1989) HybridRip-AVC от DoMiNo | P | Special Edition | Open Matte 5.35 GB ↑ 0 ↓ 0
2023-10-16 magnet Мег 2: Бездна / Meg 2: The Trench (2023) BDRip-AVC от DoMiNo & селезень | D, P, A 3.42 GB ↑ 1 ↓ 0
2023-10-16 magnet Мег 2: Бездна / Meg 2: The Trench (2023) HDRip от ELEKTRI4KA | D 1.46 GB ↑ 0 ↓ 0
2023-10-01 magnet Мег 2: Бездна / Meg 2: The Trench (2023) WEB-DL 1080p от Scarabey | D | Red Head Sound 6.81 GB ↑ 0 ↓ 0
2023-08-28 magnet Мег 2: Бездна / Meg 2: The Trench (2023) WEB-DLRip от New-Team | TVShows 1.46 GB ↑ 0 ↓ 0

Кто качает (только для создателя раздачи и модераторов): Локальные пиры отсутствуют

Комментарии


Зарегистрируйтесь чтобы добавить комментарий
Торрент клиент
byTorrent - программа для загрузки торрент-файлов.

Скачать byTorrent.exe (1,5 МБ)

Скачать byTorrent.zip (0,6 МБ)

Поддержи torrent.by
российских рублей
(300 российских рублей это 4$)

Обратная связь rss

End game ©