↑↓torrent.by
Поиск
Логин:  Регистрация
Пароль:

Атлас / Atlas (2024) WEB-DL-HEVC 2160p | 4K | SDR | D

download Скачать торрент-файл   magnet Магнитная ссылка Размер: 10.85 GB Добавлен: 2024-05-26 05:00
Пиры будут получены из сети DHT
Последний сидер был замечен 2024-05-27 22:17
Информация о фильме Название: Атлас Оригинальное название: Atlas Год выхода: 2024 Жанр: фантастика, боевик, драма Режиссер: Брэд Пейтон В ролях: Дженнифер Лопес, Симу Лю, Стерлинг К. Браун, Грег Кохан, Абрахам Попула, Лана Паррия, Марк Стронг, Бриелла Гуиса, Адия Смит-Эрикссон, Логан Хант О фильме: Солдат с искусственным интеллектом решает, что единственный способ положить конец войне — это покончить с человечеством. Страна: США Продолжительность: 02:00:05 Перевод: Профессиональный (дублированный) - Videofilm International Ltd. Файл Кодек: H.265 Качество: WEB-DL 2160p Видео: HEVC, 3840x2160 (16:9), 24.000 fps, 10,8 Mb/s, 10 bit Аудио 1: E-AC3, 48.0 kHz, 6 ch, 640 kb/s | RUS (DUB, Videofilm International Ltd) Аудио 2: E-AC3 JOC, 48.0 kHz, 6 ch, 768 kb/s | UKR (DUB, Le Doyen) Аудио 3: E-AC3 JOC, 48.0 kHz, 6 ch, 768 kb/s | ENG Субтитры: русские (forced, full), украинские (forced, full), aнглийские (SDH), немецкие, французские, польские, румынские
[+] MIGeneral Unique ID : 41874073699891522105893667393548628763 (0x1F80A73AF26EE52C2474BDC72114B31B) Complete name : Atlas.2024.2160p.UHD.NF.WEB-DL.SDR.HEVC-Нечипорук.mkv Format : Matroska Format version : Version 4 File size : 10.8 GiB Duration : 2 h 0 min Overall bit rate : 12.9 Mb/s Frame rate : 24.000 FPS Movie name : Atlas.2024.2160p.UHD.NF.WEB-DL.SDR.HEVC-Нечипорук Encoded date : 2024-05-24 22:44:52 UTC Writing application : mkvmerge v84.0 ('Sleeper') 64-bit Writing library : libebml v1.4.5 + libmatroska v1.7.1 Cover : Yes Attachments : cover.jpg Video ID : 1 Format : HEVC Format/Info : High Efficiency Video Coding Format profile : Main 10@L5@Main Codec ID : V_MPEGH/ISO/HEVC Duration : 2 h 0 min Bit rate : 10.8 Mb/s Width : 3 840 pixels Height : 2 160 pixels Display aspect ratio : 16:9 Frame rate mode : Constant Frame rate : 24.000 FPS Color space : YUV Chroma subsampling : 4:2:0 Bit depth : 10 bits Bits/(Pixel*Frame) : 0.054 Stream size : 9.02 GiB (83%) Title : Atlas.2024.2160p.UHD.NF.WEB-DL.SDR.HEVC-Нечипорук Language : English Default : Yes Forced : No Color range : Limited Color primaries : BT.709 Transfer characteristics : BT.709 Matrix coefficients : BT.709 Audio #1 ID : 2 Format : E-AC-3 Format/Info : Enhanced AC-3 Commercial name : Dolby Digital Plus Codec ID : A_EAC3 Duration : 2 h 0 min Bit rate mode : Constant Bit rate : 640 kb/s Channel(s) : 6 channels Channel layout : L R C LFE Ls Rs Sampling rate : 48.0 kHz Frame rate : 31.250 FPS (1536 SPF) Compression mode : Lossy Stream size : 550 MiB (5%) Title : Дубляж Videofilm Int. Language : Russian Service kind : Complete Main Default : Yes Forced : No Audio #2 ID : 3 Format : E-AC-3 JOC Format/Info : Enhanced AC-3 with Joint Object Coding Commercial name : Dolby Digital Plus with Dolby Atmos Codec ID : A_EAC3 Duration : 2 h 0 min Bit rate mode : Constant Bit rate : 768 kb/s Channel(s) : 6 channels Channel layout : L R C LFE Ls Rs Sampling rate : 48.0 kHz Frame rate : 31.250 FPS (1536 SPF) Compression mode : Lossy Stream size : 660 MiB (6%) Title : Дубляж LeDoyen Language : Ukrainian Service kind : Complete Main Default : No Forced : No Complexity index : 16 Number of dynamic objects : 15 Bed channel count : 1 channel Bed channel configuration : LFE Audio #3 ID : 4 Format : E-AC-3 JOC Format/Info : Enhanced AC-3 with Joint Object Coding Commercial name : Dolby Digital Plus with Dolby Atmos Codec ID : A_EAC3 Duration : 2 h 0 min Bit rate mode : Constant Bit rate : 768 kb/s Channel(s) : 6 channels Channel layout : L R C LFE Ls Rs Sampling rate : 48.0 kHz Frame rate : 31.250 FPS (1536 SPF) Compression mode : Lossy Stream size : 660 MiB (6%) Title : Original Language : English Service kind : Complete Main Default : No Forced : No Complexity index : 16 Number of dynamic objects : 15 Bed channel count : 1 channel Bed channel configuration : LFE Text #1 ID : 5 Format : UTF-8 Codec ID : S_TEXT/UTF8 Codec ID/Info : UTF-8 Plain Text Duration : 1 h 48 min Bit rate : 2 b/s Frame rate : 0.009 FPS Count of elements : 57 Stream size : 1.88 KiB (0%) Title : Форсированные Language : Russian Default : Yes Forced : No Text #2 ID : 6 Format : UTF-8 Codec ID : S_TEXT/UTF8 Codec ID/Info : UTF-8 Plain Text Duration : 1 h 57 min Bit rate : 83 b/s Frame rate : 0.188 FPS Count of elements : 1319 Stream size : 71.5 KiB (0%) Title : Полные Language : Russian Default : No Forced : No Text #3 ID : 7 Format : UTF-8 Codec ID : S_TEXT/UTF8 Codec ID/Info : UTF-8 Plain Text Duration : 1 h 48 min Bit rate : 2 b/s Frame rate : 0.008 FPS Count of elements : 54 Stream size : 2.16 KiB (0%) Title : Форсованнi Language : Ukrainian Default : No Forced : No Text #4 ID : 8 Format : UTF-8 Codec ID : S_TEXT/UTF8 Codec ID/Info : UTF-8 Plain Text Duration : 1 h 57 min Bit rate : 81 b/s Frame rate : 0.190 FPS Count of elements : 1333 Stream size : 69.6 KiB (0%) Title : Повнi Language : Ukrainian Default : No Forced : No Text #5 ID : 9 Format : UTF-8 Codec ID : S_TEXT/UTF8 Codec ID/Info : UTF-8 Plain Text Duration : 1 h 48 min Bit rate : 60 b/s Frame rate : 0.254 FPS Count of elements : 1652 Stream size : 48.3 KiB (0%) Title : Full SDH Language : English Default : No Forced : No Text #6 ID : 10 Format : UTF-8 Codec ID : S_TEXT/UTF8 Codec ID/Info : UTF-8 Plain Text Duration : 1 h 57 min Bit rate : 48 b/s Frame rate : 0.183 FPS Count of elements : 1284 Stream size : 41.5 KiB (0%) Title : Voll Language : German Default : No Forced : No Text #7 ID : 11 Format : UTF-8 Codec ID : S_TEXT/UTF8 Codec ID/Info : UTF-8 Plain Text Duration : 1 h 57 min Bit rate : 42 b/s Frame rate : 0.180 FPS Count of elements : 1265 Stream size : 36.8 KiB (0%) Title : Sous-titres complets Language : French Default : No Forced : No Text #8 ID : 12 Format : UTF-8 Codec ID : S_TEXT/UTF8 Codec ID/Info : UTF-8 Plain Text Duration : 1 h 57 min Bit rate : 42 b/s Frame rate : 0.182 FPS Count of elements : 1283 Stream size : 36.4 KiB (0%) Title : Pełne napisy Language : Polish Default : No Forced : No Text #9 ID : 13 Format : UTF-8 Codec ID : S_TEXT/UTF8 Codec ID/Info : UTF-8 Plain Text Duration : 1 h 57 min Bit rate : 45 b/s Frame rate : 0.186 FPS Count of elements : 1311 Stream size : 39.0 KiB (0%) Title : Subtitrări complete Language : Romanian Default : No Forced : No Menu 00:00:00.000 : en:Part 01 01:48:47.000 : en:Credits
[+] Скриншоты

Всего файлов в раздаче: 1 
Atlas.2024.2160p.UHD.NF.WEB-DL.SDR.HEVC-Нечипорук.mkv10.85 GB

Похожие раздачи по запросу - Атлас
2024-06-14 magnet Атлас / Atlas (2024) WEB-DLRip-AVC от ExKinoRay | D 745.83 MB ↑ 0 ↓ 1
2024-05-31 magnet Атлас / Atlas [2024, фантастика, боевик, драма, WEB-DLRip-AVC] Dub (Videofilm International Ltd.) 2.18 GB ↑ 0 ↓ 0
2024-05-28 magnet Атлас / Atlas (2024) WEB-DLRip-AVC | КПК | D | Netflix | UKR 544.78 MB ↑ 0 ↓ 0
2024-05-28 magnet Атлас / Atlas (2024) WEB-DLRip от ExKinoRay | P 745.76 MB ↑ 0 ↓ 0
2024-05-27 magnet Атлас / Atlas (2024) WEB-DL-HEVC 2160p | 4K | Dolby Vision TV | D 15.65 GB ↑ 0 ↓ 0
2024-05-27 magnet Атлас / Atlas (2024) WEB-DL 1080p от Jaskier | P 4.86 GB ↑ 0 ↓ 0
2024-05-26 magnet Атлас / Atlas (2024) UHD WEB-DL-HEVC 2160p | 4K | SDR | D, P2, L 10.48 GB ↑ 1 ↓ 0

Комментарии


Зарегистрируйтесь чтобы добавить комментарий
Торрент клиент
byTorrent - программа для загрузки торрент-файлов.

Скачать byTorrent.exe (1,5 МБ)

Скачать byTorrent.zip (0,6 МБ)

Поддержи torrent.by
российских рублей
(300 российских рублей это 4$)

Обратная связь rss

End game ©