↑↓torrent.by
Поиск
Логин:  Регистрация
Пароль:

Падение империи / Повстання Штатів / Civil War (2024) WEB-DL-HEVC 2160p | 4K | SDR | D | UKR

download Скачать торрент-файл   magnet Магнитная ссылка Размер: 12.25 GB Добавлен: 2024-05-26 11:00
Пиры будут получены из сети DHT
Последний сидер был замечен 2024-06-08 23:18
Информация о фильме Название: Падение империи Оригинальное название: Civil War Год выхода: 2023 Жанр: боевик, драма Режиссер: Алекс Гарленд В ролях: Кирстен Данст, Вагнер Моура, Кейли Спейни, Стивен Хендерсон, Соноя Мидзуно, Ник Офферман, Джефферсон Уайт, Хуани Фелиз, Нельсон Ли, Эдмунд Донован О фильме: Национальная гвардия Калифорнии и Техаса при поддержке боевой техники и авиации штурмуют столицу. Белый дом вот-вот падет. Группа журналистов пытается добраться до пылающего Вашингтона, чтобы взять последнее интервью у президента некогда Соединенных Штатов Америки. Но в стране, где царит хаос, нет ничего дороже литра бензина и ничего дешевле, чем человеческая жизнь. Страна: США, Великобритания Продолжительность: 01:48:45 Перевод: Дублированный | (Украинский) Файл Кодек: H.265 Качество: WEB-DL 2160p Видео: HEVC, 3840x2080 (2.40:1), 23.976 fps, 14,9 Mb/s Аудио 1: AC3, 48.0 kHz, 6 ch, 448 kb/s | UKR Аудио 2: E-AC3 JOC, 48.0 kHz, 6 ch, 768 kb/s | ENG Субтитры: английские (full, SDH), испанские
[+] MIGeneral Unique ID : 144996774989682680718715701163165855958 (0x6D155CF2C2833E2C03A90A62014DB0D6) Complete name : Civil War (2024) WEB-DL 2160p H.265 .mkv Format : Matroska Format version : Version 4 File size : 12.2 GiB Duration : 1 h 48 min Overall bit rate : 16.1 Mb/s Frame rate : 23.976 FPS Encoded date : 2024-05-24 19:50:04 UTC Writing application : mkvmerge v84.0 ('Sleeper') 64-bit Writing library : libebml v1.4.5 + libmatroska v1.7.1 Cover : Yes Attachments : cover.jpg Video ID : 1 Format : HEVC Format/Info : High Efficiency Video Coding Format profile : Main@L5@Main Codec ID : V_MPEGH/ISO/HEVC Duration : 1 h 48 min Bit rate : 14.9 Mb/s Width : 3 840 pixels Height : 2 080 pixels Display aspect ratio : 1.85:1 Frame rate mode : Constant Frame rate : 23.976 (24000/1001) FPS Color space : YUV Chroma subsampling : 4:2:0 Bit depth : 8 bits Bits/(Pixel*Frame) : 0.078 Stream size : 11.3 GiB (92%) Language : English (US) Default : Yes Forced : No Color range : Limited Color primaries : BT.709 Transfer characteristics : BT.709 Matrix coefficients : BT.709 Audio #1 ID : 2 Format : AC-3 Format/Info : Audio Coding 3 Commercial name : Dolby Digital Codec ID : A_AC3 Duration : 1 h 48 min Bit rate mode : Constant Bit rate : 448 kb/s Channel(s) : 6 channels Channel layout : L R C LFE Ls Rs Sampling rate : 48.0 kHz Frame rate : 31.250 FPS (1536 SPF) Compression mode : Lossy Stream size : 348 MiB (3%) Language : Ukrainian Service kind : Complete Main Default : Yes Forced : No Dialog Normalization : -31 dB cmixlev : -4.5 dB surmixlev : -6 dB dialnorm_Average : -31 dB dialnorm_Minimum : -31 dB dialnorm_Maximum : -31 dB Audio #2 ID : 3 Format : E-AC-3 JOC Format/Info : Enhanced AC-3 with Joint Object Coding Commercial name : Dolby Digital Plus with Dolby Atmos Codec ID : A_EAC3 Duration : 1 h 48 min Bit rate mode : Constant Bit rate : 768 kb/s Channel(s) : 6 channels Channel layout : L R C LFE Ls Rs Sampling rate : 48.0 kHz Frame rate : 31.250 FPS (1536 SPF) Compression mode : Lossy Delay relative to video : 19 ms Stream size : 597 MiB (5%) Language : English (US) Service kind : Complete Main Default : No Forced : No Complexity index : 16 Number of dynamic objects : 15 Bed channel count : 1 channel Bed channel configuration : LFE Dialog Normalization : -26 dB compr : -0.28 dB dialnorm_Average : -26 dB dialnorm_Minimum : -26 dB dialnorm_Maximum : -26 dB Text #1 ID : 4 Format : UTF-8 Codec ID : S_TEXT/UTF8 Codec ID/Info : UTF-8 Plain Text Duration : 1 h 39 min Bit rate : 34 b/s Frame rate : 0.165 FPS Count of elements : 989 Stream size : 25.4 KiB (0%) Language : English (US) Default : No Forced : No Text #2 ID : 5 Format : UTF-8 Codec ID : S_TEXT/UTF8 Codec ID/Info : UTF-8 Plain Text Duration : 1 h 40 min Bit rate : 39 b/s Frame rate : 0.189 FPS Count of elements : 1139 Stream size : 28.6 KiB (0%) Title : SDH Language : English (US) Default : No Forced : No Text #3 ID : 6 Format : UTF-8 Codec ID : S_TEXT/UTF8 Codec ID/Info : UTF-8 Plain Text Duration : 1 h 48 min Bit rate : 32 b/s Frame rate : 0.143 FPS Count of elements : 928 Stream size : 25.9 KiB (0%) Title : Latin American Language : Spanish (Latin America) Default : No Forced : No Menu 00:00:00.000 : en:Chapter 01 00:14:27.409 : en:Chapter 02 00:19:16.281 : en:Chapter 03 00:28:41.304 : en:Chapter 04 00:44:34.341 : en:Chapter 05 00:56:47.866 : en:Chapter 06 01:12:51.329 : en:Chapter 07 01:22:38.249 : en:Chapter 08 01:33:07.921 : en:Chapter 09 01:41:07.150 : en:Chapter 10
[+] Скриншоты

Всего файлов в раздаче: 1 
Civil War (2024) WEB-DL 2160p H.265 [Ukr_Eng] [Hurtom].mkv12.25 GB

Похожие раздачи по запросу - Падение
2024-05-28 magnet Падение империи / Гражданская война / Civil War (2024) UHD WEB-DL 2160p | 4K | SDR | D, P2 16.52 GB ↑ 0 ↓ 0
2024-05-28 magnet Падение империи / Гражданская война / Civil War (2024) UHD WEB-DL 2160p | 4K | HDR | Dolby Vision Profile 8 | D, P2 19.05 GB ↑ 2 ↓ 3
2024-05-27 magnet Падение империи / Гражданская война / Civil War (2024) WEB-DLRip-AVC | D | HDRezka Studio 1.88 GB ↑ 0 ↓ 0
2024-05-27 magnet Падение империи / Гражданская война / Civil War (2024) WEB-DLRip 720p от DoMiNo & селезень | D, P2 | HDRezka Studio, ViruseProject 3.31 GB ↑ 0 ↓ 0
2024-05-27 magnet Падение империи / Гражданская война / Civil War (2024) WEB-DL 1080p от New-Team | D, P2 | HDRezka Studio, ViruseProject 6.93 GB ↑ 0 ↓ 1
2024-05-27 magnet Падение империи / Гражданская война / Civil War (2024) WEB-DLRip от MegaPeer | D | HDRezka Studio 1.46 GB ↑ 0 ↓ 0
2024-05-27 magnet Викинги: Взлет и падение / Vikings: Rise and Fall [S01] (2022) WEB-DL 1080p | Pazl Voice 8.02 GB ↑ 0 ↓ 0

Кто качает (только для создателя раздачи и модераторов): Локальные пиры отсутствуют

Комментарии


Зарегистрируйтесь чтобы добавить комментарий
Торрент клиент
byTorrent - программа для загрузки торрент-файлов.

Скачать byTorrent.exe (1,5 МБ)

Скачать byTorrent.zip (0,6 МБ)

Поддержи torrent.by
российских рублей
(300 российских рублей это 4$)

Обратная связь rss

End game ©