↑↓torrent.by
Поиск
Логин:  Регистрация
Пароль:

Хороший доктор / The Good Doctor [S07] (2024) WEB-DL 1080p от Jaskier | P

download Скачать торрент-файл   magnet Магнитная ссылка Размер: 21.94 GB Добавлен: 2024-05-26 11:00
Пиры будут получены из сети DHT
Последний сидер был замечен 2024-06-05 13:36
Информация о фильме Название: Хороший доктор Оригинальное название: The Good Doctor Год выхода: 2024 Жанр: драма Режиссер: Майк Листо, Стивен ДеПол, Ребекка Молин В ролях: Фредди Хаймор, Ричард Шифф, Хилл Харпер, Кристина Чанг, Пейдж Спара, Фиона Губелманн, Уилл Юн Ли, Антония Томас, Николас Гонсалес, Брайа Хендерсон О фильме: История молодого талантливого врача с синдромом саванта, обладающего уникальными способностями - невероятной памятью и фантастической чувствительностью к проблемам, вспыхивающим внутри человеческого организма. Парень становится блестящим хирургом, но несмотря на это, в личностном плане его развитие соответствует уровню десятилетнего ребёнка. Страна: США Студия: 3AD, ABC Signature, EnterMedia Content Продолжительность: ~00:43:00 Перевод: Профессиональный (многоголосый закадровый) Jaskier Файл Кодек: MKV Качество: WEB-DL 1080p Видео: AVC, 1920x1080 (16:9), 23.976 fps, ~5439 kbps Звук: Аудио 1: Русский, AC-3, 48 kHz, 6 ch, 384 kbps | Jaskier Аудио 2: Английский, E-AC-3, 48 kHz, 6 ch, 640 kbps Субтитры: Английские (Full, SDH) Семпл
[+] Список серий 01. Раз малыш, два малыш, три малыш / Baby, Baby, Baby 02. Личная заинтересованность / Skin in the Game 03. Необходимая поддержка / Critical Support 04. Романтический вечер / Date Night 05. Достигший умиротворения / Who At Peace 06. Событие с массовыми жертвами / M.C.E. 07. Вера / Faith 08. Эффект обзора / The Overview Effect 09. Без всяких "если" / Unconditional 10. Прощание / Goodbye
[+] MediaInfo General Unique ID : 191948749043248439099999969330665518709 (0x9067FBFED21DA0F28689355D94A67675) Complete name : E:TorrentThe.Good.Doctor.S07.1080p.AMZN.WEB-DL.DD5.1.H.264-JaskierThe.Good.Doctor.S07E01.Baby.Baby.Baby.1080p.AMZN.WEB-DL.DD5.1.H.264-Jaskier.mkv Format : Matroska Format version : Version 4 File size : 1.99 GiB Duration : 43 min 10 s Overall bit rate : 6 594 kb/s Frame rate : 23.976 FPS Encoded date : 2024-05-24 13:04:24 UTC Writing application : mkvmerge v6.6.0 ('The Edge Of The In Between') built on Dec 1 2013 17:55:00 Writing library : libebml v1.3.0 + libmatroska v1.4.1 Video ID : 1 Format : AVC Format/Info : Advanced Video Codec Format profile : High@L4 Format settings : CABAC / 4 Ref Frames Format settings, CABAC : Yes Format settings, Reference frames : 4 frames Codec ID : V_MPEG4/ISO/AVC Duration : 43 min 10 s Bit rate mode : Constant Bit rate : 5 439 kb/s Nominal bit rate : 10 000 kb/s Width : 1 920 pixels Height : 1 080 pixels Display aspect ratio : 16:9 Frame rate mode : Constant Frame rate : 23.976 (24000/1001) FPS Color space : YUV Chroma subsampling : 4:2:0 Bit depth : 8 bits Scan type : Progressive Bits/(Pixel*Frame) : 0.109 Stream size : 1.64 GiB (82%) Default : Yes Forced : No Color range : Limited Color primaries : BT.709 Transfer characteristics : BT.709 Matrix coefficients : BT.709 Audio #1 ID : 2 Format : AC-3 Format/Info : Audio Coding 3 Commercial name : Dolby Digital Codec ID : A_AC3 Duration : 43 min 10 s Bit rate mode : Constant Bit rate : 384 kb/s Channel(s) : 6 channels Channel layout : L R C LFE Ls Rs Sampling rate : 48.0 kHz Frame rate : 31.250 FPS (1536 SPF) Compression mode : Lossy Stream size : 119 MiB (6%) Title : Jaskier Language : Russian Service kind : Complete Main Default : Yes Forced : No Audio #2 ID : 3 Format : E-AC-3 Format/Info : Enhanced AC-3 Commercial name : Dolby Digital Plus Codec ID : A_EAC3 Duration : 43 min 10 s Bit rate mode : Constant Bit rate : 640 kb/s Channel(s) : 6 channels Channel layout : L R C LFE Ls Rs Sampling rate : 48.0 kHz Frame rate : 31.250 FPS (1536 SPF) Compression mode : Lossy Stream size : 198 MiB (10%) Title : Original Language : English Service kind : Complete Main Default : No Forced : No Text #1 ID : 4 Format : UTF-8 Codec ID : S_TEXT/UTF8 Codec ID/Info : UTF-8 Plain Text Language : English Default : No Forced : No Text #2 ID : 5 Format : UTF-8 Codec ID : S_TEXT/UTF8 Codec ID/Info : UTF-8 Plain Text Title : SDH Language : English Default : No Forced : No
[+] Скриншоты
Релиз от: Jaskier

Всего файлов в раздаче: 10 
The.Good.Doctor.S07E01.Baby.Baby.Baby.1080p.AMZN.WEB-DL.DD5.1.H.264-Jaskier.mkv1.99 GB
The.Good.Doctor.S07E02.Skin.In.The.Game.1080p.AMZN.WEB-DL.DDP5.1.H.264-Jaskier.mkv1.91 GB
The.Good.Doctor.S07E03.Critical.Support.1080p.AMZN.WEB-DL.DD5.1.H.264-Jaskier.mkv1.89 GB
The.Good.Doctor.S07E04.Date.Night1080p.AMZN.WEB-DL.DD5.1.H.264-Jaskier.mkv2.30 GB
The.Good.Doctor.S07E05.Who.At.Peace.1080p.AMZN.WEB-DL.DDP5.1.H.264-Jaskier.mkv2.12 GB
The.Good.Doctor.S07E06.M.C.E.1080p.AMZN.WEB-DL.DDP5.1.H.264-Jaskier.mkv2.58 GB
The.Good.Doctor.S07E07.Faith.1080p.AMZN.WEB-DL.DDP5.1.H.264-Jaskier.mkv2.12 GB
The.Good.Doctor.S07E08.The.Overview.Effect.1080p.AMZN.WEB-DL.DDP5.1.H.264-Jaskier.mkv2.41 GB
The.Good.Doctor.S07E09.Unconditional.1080p.AMZN.WEB-DL.DDP5.1.H.264.Jaskier.mkv2.27 GB
The.Good.Doctor.S07E10.Goodbye.1080p.AMZN.WEB-DL.DDP5.1.H.264-Jaskier.mkv2.36 GB

Похожие раздачи по запросу - Хороший
2024-05-24 magnet Хороший доктор / The Good Doctor [S01-07] (2017-2024) WEB-DLRip | LostFilm 68.90 GB ↑ 0 ↓ 1
2024-02-07 magnet Плохой хороший полицейский 2 / Bon Cop Bad Cop 2 (2017) BDRip-AVC от msltel | L 2.36 GB ↑ 0 ↓ 0
2021-10-16 magnet Хороший, плохой, коп / Copshop (2021) WEB-DL 1080p | Pazl Voice 7.44 GB ↑ 0 ↓ 0

Комментарии


Зарегистрируйтесь чтобы добавить комментарий
Торрент клиент
byTorrent - программа для загрузки торрент-файлов.

Скачать byTorrent.exe (1,5 МБ)

Скачать byTorrent.zip (0,6 МБ)

Поддержи torrent.by
российских рублей
(300 российских рублей это 4$)

Обратная связь rss

End game ©