↑↓torrent.by
Поиск
Логин:  Регистрация
Пароль:

Новичок / Новобранец / The Rookie [S06] (2024) WEB-DL 720p | LostFilm, TVShows, HDrezka Studio

download Скачать торрент-файл   magnet Магнитная ссылка Размер: 18.33 GB Раздают: 0 Качают: 3 Добавлен: 2024-05-26 11:00
Пиры будут получены из сети DHT
Последний сидер был замечен 2024-05-26 11:00
Информация о фильме Название: Новичок / Новобранец Оригинальное название: The Rookie Год выпуска: 2024 Страна: США Жанр: драма, комедия, криминал Продолжительность: 10x ~ 00:43:00 Перевод: Профессиональный (многоголосый закадровый) LostFilm Перевод: Профессиональный (многоголосый закадровый) TVShows Перевод: Профессиональный (многоголосый закадровый) HDRezka Studio Режиссёр: Билл Роу, Майкл Гои, Lisa Demaine В ролях: Нэйтан Филлион (Nathan Fillion), Алисса Диас (Alyssa Diaz), Ричард Т. Джонс (Richard T. Jones), Титус Макин мл. (Titus Makin Jr.), Мелисса О’Нил (Melissa O'Neil), Эрик Винтер (Eric Winter), Мекиа Кокс (Mekia Cox), Эфтон Уильямсон (Afton Williamson), Мерседес Масон (Mercedes Mason), Шон Эшмор (Shawn Ashmore), Жан М. Янссен (Jan M. Janssen) Описание: Сериал повествует о Джоне Нолане — сорокалетнем мужчине, который только что развелся и теперь совершенно не знает, что делать с появившимся свободным временем. Всё, о чем он мечтал, осталось в прошлом, а начинать жизнь с чистого листа всегда непросто, особенно для уроженца маленького провинциального городка. Но случай в банке переворачивает его жизнь с ног на голову, после чего Джон твердо решает стать полицейским. Вот только поступив на службу, Нолан сталкивается с тем, что его появлению в отделении совершенно не рады, считая мужчину "ходячим кризисом среднего возраста". И теперь Джону необходимо приложить максимум усилий, чтобы доказать всем, что он достоин быть полицейским... Файл Качество: WEB-DL 720р Формат: MKV Видео: AVC, 1280 x 720 (1.778) at 23.976 fps, ~4 910 kbps Аудио Rus: E-AC-3, 48 kHz, 6 ch, 640 kbps |LostFilm|* Аудио Rus: AC-3, 48 kHz, 6 ch, 384 kbps |TVShows| Аудио Rus: AC-3, 48 kHz, 2 ch, 192 kbps |HDrezka Studio Аудио Eng: E-AC-3, 48 kHz, 6 ch, 640 kbps |Original| Субтитры: Rus (Forced, Full |HDrezka|), Eng (Full, SDH) Реклама: Отсутствует
[+] Доп. инфо*Дорожка LostFilm получена путём наложения выделенных голосов на центр оригинала. Работа со звуком Andron1975 (DVT)
[+] MediaInfo:Общее Уникальный идентификатор : 285972142233238753381615672853523134495 (0xD7243B2FD777FCD7636C4EA90E8CF81F) Полное имя : E:_Сериалы_СериалыНовобранецThe.Rookie.S06.WEBDL.720pThe.Rookie.S06E01.WEBDL.720p.RGzsRutrаcker.mkv Формат : Matroska Версия формата : Version 4 Размер файла : 2,03 Гбайт Продолжительность : 42 м. 58 с. Общий поток : 6 770 Кбит/сек Частота кадров : 23,976 кадра/сек Дата кодирования : 2024-03-11 20:19:23 UTC Программа кодирования : mkvmerge v82.0 ('I'm The President') 64-bit Библиотека кодирования : libebml v1.4.5 + libmatroska v1.7.1 Видео Идентификатор : 1 Формат : AVC Формат/Информация : Advanced Video Codec Профиль формата : High@L3.1 Настройки формата : CABAC / 4 Ref Frames Параметр CABAC формата : Да Параметр RefFrames формата : 4 кадра Идентификатор кодека : V_MPEG4/ISO/AVC Продолжительность : 42 м. 58 с. Вид битрейта : Постоянный Битрейт : 4 910 Кбит/сек Номинальный битрейт : 6 000 Кбит/сек Ширина : 1 280 пикселей Высота : 720 пикселей Соотношение сторон : 16:9 Режим частоты кадров : Постоянный Частота кадров : 23,976 (24000/1001) кадра/сек Цветовое пространство : YUV Субдискретизация насыщенности : 4:2:0 Битовая глубина : 8 бит Тип развёртки : Прогрессивная Бит/(Пиксели*Кадры) : 0.222 Размер потока : 1,47 Гбайт (73%) Язык : English (US) Default : Да Forced : Нет Цветовой диапазон : Limited Основные цвета : BT.709 Характеристики трансфера : BT.709 Коэффициенты матрицы : BT.709 Аудио #1 Идентификатор : 2 Формат : E-AC-3 Формат/Информация : Enhanced AC-3 Коммерческое название : Dolby Digital Plus Идентификатор кодека : A_EAC3 Продолжительность : 42 м. 58 с. Вид битрейта : Постоянный Битрейт : 640 Кбит/сек Каналы : 6 каналов Channel layout : L R C LFE Ls Rs Частота : 48,0 КГц Частота кадров : 31,250 кадров/сек (1536 SPF) Метод сжатия : С потерями Размер потока : 197 Мбайт (9%) Заголовок : LF Язык : Russian Service kind : Complete Main Default : Да Forced : Нет Аудио #2 Идентификатор : 3 Формат : AC-3 Формат/Информация : Audio Coding 3 Коммерческое название : Dolby Digital Идентификатор кодека : A_AC3 Продолжительность : 42 м. 57 с. Вид битрейта : Постоянный Битрейт : 384 Кбит/сек Каналы : 6 каналов Channel layout : L R C LFE Ls Rs Частота : 48,0 КГц Частота кадров : 31,250 кадров/сек (1536 SPF) Метод сжатия : С потерями Размер потока : 118 Мбайт (6%) Заголовок : TVS Язык : Russian Service kind : Complete Main Default : Нет Forced : Нет Аудио #3 Идентификатор : 4 Формат : AC-3 Формат/Информация : Audio Coding 3 Коммерческое название : Dolby Digital Идентификатор кодека : A_AC3 Продолжительность : 42 м. 57 с. Вид битрейта : Постоянный Битрейт : 192 Кбит/сек Каналы : 2 канала Channel layout : L R Частота : 48,0 КГц Частота кадров : 31,250 кадров/сек (1536 SPF) Метод сжатия : С потерями Размер потока : 59,0 Мбайт (3%) Заголовок : HDr Язык : Russian Service kind : Complete Main Default : Нет Forced : Нет Аудио #4 Идентификатор : 5 Формат : E-AC-3 Формат/Информация : Enhanced AC-3 Коммерческое название : Dolby Digital Plus Идентификатор кодека : A_EAC3 Продолжительность : 42 м. 58 с. Вид битрейта : Постоянный Битрейт : 640 Кбит/сек Каналы : 6 каналов Channel layout : L R C LFE Ls Rs Частота : 48,0 КГц Частота кадров : 31,250 кадров/сек (1536 SPF) Метод сжатия : С потерями Размер потока : 197 Мбайт (9%) Заголовок : Eng Язык : English Service kind : Complete Main Default : Нет Forced : Нет Текст #1 Идентификатор : 6 Формат : UTF-8 Идентификатор кодека : S_TEXT/UTF8 Идентификатор кодека/Информация : UTF-8 Plain Text Продолжительность : 30 м. 46 с. Битрейт : 0 бит/сек Частота кадров : 0,003 кадр/сек Count of elements : 6 Размер потока : 193 байт (0%) Заголовок : Forc Язык : Russian Default : Да Forced : Нет Текст #2 Идентификатор : 7 Формат : UTF-8 Идентификатор кодека : S_TEXT/UTF8 Идентификатор кодека/Информация : UTF-8 Plain Text Продолжительность : 42 м. 1 с. Битрейт : 116 бит/сек Частота кадров : 0,349 кадр/сек Count of elements : 881 Размер потока : 35,8 Кбайт (0%) Заголовок : Rus Язык : Russian Default : Нет Forced : Нет Текст #3 Идентификатор : 8 Формат : UTF-8 Идентификатор кодека : S_TEXT/UTF8 Идентификатор кодека/Информация : UTF-8 Plain Text Продолжительность : 42 м. 52 с. Битрейт : 96 бит/сек Частота кадров : 0,377 кадр/сек Count of elements : 970 Размер потока : 30,3 Кбайт (0%) Заголовок : Eng Язык : English (US) Default : Нет Forced : Нет Текст #4 Идентификатор : 9 Формат : UTF-8 Идентификатор кодека : S_TEXT/UTF8 Идентификатор кодека/Информация : UTF-8 Plain Text Продолжительность : 42 м. 52 с. Битрейт : 103 бит/сек Частота кадров : 0,420 кадр/сек Count of elements : 1081 Размер потока : 32,6 Кбайт (0%) Заголовок : SDH Язык : English (US) Default : Нет Forced : Нет Меню 00:00:39.000 : en:Scene 1 00:42:18.000 : en:End Credits
[+] Скриншоты:

Всего файлов в раздаче: 10 
The.Rookie.S06E01.WEBDL.720p.RGzsRutracker.mkv2.03 GB
The.Rookie.S06E02.WEBDL.720p.RGzsRutracker.mkv1.85 GB
The.Rookie.S06E03.WEBDL.720p.RGzsRutracker.mkv1.87 GB
The.Rookie.S06E04.WEBDL.720p.RGzsRutracker.mkv1.90 GB
The.Rookie.S06E05.WEBDL.720p.RGzsRutracker.mkv1.67 GB
The.Rookie.S06E06.WEBDL.720p.RGzsRutracker.mkv1.66 GB
The.Rookie.S06E07.WEBDL.720p.RGzsRutracker.mkv2.06 GB
The.Rookie.S06E08.WEBDL.720p.RGzsRutracker.mkv1.67 GB
The.Rookie.S06E09.WEBDL.720p.RGzsRutracker.mkv1.74 GB
The.Rookie.S06E10.WEBDL.720p.RGzsRutracker.mkv1.89 GB

Похожие раздачи по запросу - Новичок
2024-05-25 magnet Новичок / Новобранец / The Rookie [S06] (2024) WEB-DLRip | LostFilm 5.95 GB ↑ 0 ↓ 3
2024-05-25 magnet Новичок / Новобранец / The Rookie [S06] (2024) WEB-DL 1080p | LostFilm, TVShows, HDrezka Studio 32.79 GB ↑ 1 ↓ 2
2024-05-23 magnet Новичок / Новобранец / The Rookie [S06] (2024) WEBRip от Kerob | L2 5.92 GB ↑ 0 ↓ 0
2024-05-23 magnet Новичок / Новобранец / The Rookie [S06] (2024) WEBRip 720p от Kerob | L2 12.18 GB ↑ 0 ↓ 0

Кто качает (только для создателя раздачи и модераторов):
ПользовательIP:портОтдалПринялОстатокСидируетТоррент клиентОбновился
1 Аноним 150.32.220.95:32000 0.00 B 1.30 GB 17.83 GB нет -qB4390- 22:52 2024-06-17
2 Аноним 231.116.172.93:43029 3.16 MB 1.99 GB 18.25 GB нет -qB4390- 22:29 2024-06-17
3 Аноним 107.191.177.185:50850 0.00 B 701.69 MB 18.26 GB нет -qB4390- 22:51 2024-06-17

Комментарии


Зарегистрируйтесь чтобы добавить комментарий
Торрент клиент
byTorrent - программа для загрузки торрент-файлов.

Скачать byTorrent.exe (1,5 МБ)

Скачать byTorrent.zip (0,6 МБ)

Поддержи torrent.by
российских рублей
(300 российских рублей это 4$)

Обратная связь rss

End game ©