↑↓torrent.by
Поиск
Логин:  Регистрация
Пароль:

Переговорщик / The Negotiator (1998) BDRip 720p от New-Team | D, P, A

download Скачать торрент-файл   magnet Магнитная ссылка Размер: 4.37 GB Добавлен: 2024-05-26 17:00
Пиры будут получены из сети DHT
Последний сидер был замечен 2024-05-26 17:00
«Он зарабатывает на жизнь, освобождая заложников, и берет заложников, чтобы выжить» Страна: Германия, США Производство: Mandeville Films, Monarchy Enterprises B.V., New Regency Pictures, Regency Enterprises, Taurus Film Жанр: боевик, триллер, драма, криминал, детектив Год выпуска: 1998 Продолжительность: 02:19:34 Перевод: Профессиональный (полное дублирование) Blu-Ray CEE, Профессиональный (многоголосый, закадровый) Варус Видео, Авторский (одноголосый закадровый) Андрей Гаврилов, Юрий Живов Оригинальная аудиодорожка: английский Cубтитры: русский Режиссер: Ф. Гэри Грей / F. Gary Gray В ролях: Сэмюэл Л. Джексон, Кевин Спейси, Дэвид Морс, Рон Рифкин, Джон Спенсер, Дж.Т. Уолш, Шаван Фэллон, Пол Джаматти, Реджина Тейлор, Брюс Битти... Подробнее об актерах Роли дублировали: Владимир Антоник, Владимир Еремин, Леонид Белозорович, Юрий Саранцев, Виктор Петров... Описание: Переговорщик — это полицейский, ведущий переговоры с преступниками или террористами, захватившими заложников. Герой картины Дэнни Роумэн — один из лучших «переговорщиков» в Чикаго. Напарник и близкий друг Роумэна сообщает ему, что в Фонде помощи инвалидам, членом правления которого был Дэнни, расхищают деньги, а он знает, кто за этим стоит. Это Терренс Найбаум из отдела внутренних расследований. Друг назначил Дэнни встречу в парке, намереваясь сообщить ему полные данные, но, когда Дэнни пришел, тот уже был застрелен. На следующий день к нему с обыском приходит именно Найбаум. У Роумэна находят банковские документы на крупные суммы денег. Его обвиняют в убийстве друга. Понимая, что шансов доказать свою невиновность нет, Роумэн берет Найбаума и еще трех человек в заложники. Он не может доверять полицейским своего участка, так как знает, что среди них убийцы его напарника, и требует, чтобы в качестве переговорщика был приглашен специалист с другого участка. Сумеет ли Роумэн доказать свою невиновность? Исходник: BDRemux 1080p Тип релиза: BDRip 720p Контейнер: MKV Видео: 1280x532 (2,40:1), 23,976 кадра/сек, x264 core 164 r318 ~ 2 499 кбит/сек, 0.153 бит/пиксель Аудио: 48 кГц, Dolby Digital AC3 5.1, 448 кбит/сек DUB Blu-Ray CEE Аудио: 48 кГц, Dolby Digital AC3 2.0, 192 кбит/сек MVO Варус Видео Аудио: 48 кГц, Dolby Digital AC3 5.1, 448 кбит/сек А. Гаврилов Аудио: 48 кГц, Dolby Digital AC3 5.1, 448 кбит/сек Ю. Живов Аудио: 48 кГц, Dolby Digital AC3 5.1, 448 кбит/сек Английский Оригинальная навигация по главам: есть Субтитры: SoftSub (srt) Раздача от:
[+] MediaInfo Общее Полное имя : Переговорщик.1998.BDRip720p__by_AVP_Studio.mkv Формат : Matroska Версия формата : Version 4 Размер файла : 4,37 Гбайт Продолжительность : 2 ч. 19 мин. Общий битрейт : 4 486 Кбит/сек Частота кадров : 23,976 кадра/сек Дата кодирования : 2024-05-23 09:16:19 UTC Программа кодирования : mkvmerge v83.0 ('Circle Of Friends') 64-bit Библиотека кодирования : libebml v1.4.5 + libmatroska v1.7.1 Видео Идентификатор : 1 Формат : AVC Формат/Информация : Advanced Video Codec Профиль формата : High@L4.1 Настройки формата : CABAC / 8 Ref Frames Параметр CABAC формата : Да Параметр RefFrames формата : 8 кадров Идентификатор кодека : V_MPEG4/ISO/AVC Продолжительность : 2 ч. 19 мин. Битрейт : 2 499 Кбит/сек Ширина : 1 280 пикселей Высота : 532 пикселя Соотношение сторон дисплея : 2,40:1 Режим частоты кадров : Постоянный Частота кадров : 23,976 (24000/1001) кадра/сек Цветовое пространство : YUV Цветовая субдискретизация : 4:2:0 Битовая глубина : 8 бит Тип развёртки : Прогрессивная Бит/(Пиксели*Кадры) : 0.153 Размер потока : 2,44 Гбайт (56%) Заголовок : Исходник BDRemux 1080p Библиотека кодирования : x264 core 164 r3182 be4f020 Параметры библиотеки кодирования : cabac=1 / ref=8 / deblock=1:-3:-3 / analyse=0x3:0x133 / me=umh / subme=10 / psy=1 / psy_rd=1.00:0.00 / mixed_ref=1 / me_range=32 / chroma_me=1 / trellis=2 / 8x8dct=1 / cqm=0 / deadzone=21,11 / fast_pskip=1 / chroma_qp_offset=-2 / threads=6 / lookahead_threads=1 / sliced_threads=0 / nr=0 / decimate=0 / interlaced=0 / bluray_compat=0 / constrained_intra=0 / bframes=8 / b_pyramid=2 / b_adapt=2 / b_bias=0 / direct=3 / weightb=1 / open_gop=0 / weightp=2 / keyint=240 / keyint_min=24 / scenecut=40 / intra_refresh=0 / rc=2pass / mbtree=0 / bitrate=2499 / ratetol=1.0 / qcomp=0.60 / qpmin=0 / qpmax=69 / qpstep=4 / cplxblur=20.0 / qblur=0.5 / ip_ratio=1.40 / pb_ratio=1.30 / aq=1:1.00 Язык : Русский По умолчанию : Да Принудительно : Нет Аудио #1 Идентификатор : 2 Формат : AC-3 Формат/Информация : Audio Coding 3 Коммерческое название : Dolby Digital Идентификатор кодека : A_AC3 Продолжительность : 2 ч. 19 мин. Вид битрейта : Постоянный Битрейт : 448 Кбит/сек Канал(-ы) : 6 каналов Расположение каналов : L R C LFE Ls Rs Частота дискретизации : 48,0 КГц Частота кадров : 31,250 кадров/сек (1536 SPF) Метод сжатия : С потерями Размер потока : 447 Мбайт (10%) Заголовок : Профессиональный (дублированный) Blu-Ray CEE Язык : Русский По умолчанию : Да Принудительно : Нет AC3_metadata cmixlev : -3.0 dB surmixlev : -3 dB Аудио #2 Идентификатор : 3 Формат : AC-3 Формат/Информация : Audio Coding 3 Коммерческое название : Dolby Digital Идентификатор кодека : A_AC3 Продолжительность : 2 ч. 19 мин. Вид битрейта : Постоянный Битрейт : 192 Кбит/сек Канал(-ы) : 2 канала Расположение каналов : L R Частота дискретизации : 48,0 КГц Частота кадров : 31,250 кадров/сек (1536 SPF) Метод сжатия : С потерями Размер потока : 192 Мбайт (4%) Заголовок : Профессиональный (многоголосый закадровый) Варус Видео Язык : Русский По умолчанию : Да Принудительно : Нет Аудио #3 Идентификатор : 4 Формат : AC-3 Формат/Информация : Audio Coding 3 Коммерческое название : Dolby Digital Идентификатор кодека : A_AC3 Продолжительность : 2 ч. 19 мин. Вид битрейта : Постоянный Битрейт : 448 Кбит/сек Канал(-ы) : 6 каналов Расположение каналов : L R C LFE Ls Rs Частота дискретизации : 48,0 КГц Частота кадров : 31,250 кадров/сек (1536 SPF) Метод сжатия : С потерями Размер потока : 447 Мбайт (10%) Заголовок : Авторский А. Гаврилов Язык : Русский По умолчанию : Да Принудительно : Нет AC3_metadata cmixlev : -4.5 dB surmixlev : -6 dB Аудио #4 Идентификатор : 5 Формат : AC-3 Формат/Информация : Audio Coding 3 Коммерческое название : Dolby Digital Идентификатор кодека : A_AC3 Продолжительность : 2 ч. 19 мин. Вид битрейта : Постоянный Битрейт : 448 Кбит/сек Канал(-ы) : 6 каналов Расположение каналов : L R C LFE Ls Rs Частота дискретизации : 48,0 КГц Частота кадров : 31,250 кадров/сек (1536 SPF) Метод сжатия : С потерями Размер потока : 447 Мбайт (10%) Заголовок : Авторский Ю. Живов Язык : Русский По умолчанию : Да Принудительно : Нет AC3_metadata cmixlev : -4.5 dB surmixlev : -6 dB Аудио #5 Идентификатор : 6 Формат : AC-3 Формат/Информация : Audio Coding 3 Коммерческое название : Dolby Digital Идентификатор кодека : A_AC3 Продолжительность : 2 ч. 19 мин. Вид битрейта : Постоянный Битрейт : 448 Кбит/сек Канал(-ы) : 6 каналов Расположение каналов : L R C LFE Ls Rs Частота дискретизации : 48,0 КГц Частота кадров : 31,250 кадров/сек (1536 SPF) Метод сжатия : С потерями Размер потока : 447 Мбайт (10%) Заголовок : Оригинал Язык : Английский По умолчанию : Да Принудительно : Нет AC3_metadata cmixlev : -4.5 dB surmixlev : -6 dB Текст Идентификатор : 7 Формат : UTF-8 Идентификатор кодека : S_TEXT/UTF8 Идентификатор кодека/Информация : UTF-8 Plain Text Продолжительность : 2 ч. 13 мин. Битрейт : 96 бит/сек Частота кадров : 0,216 кадр/сек Число элементов : 1724 Размер потока : 93,8 КиБ (0%) Заголовок : SRT Язык : Русский По умолчанию : Нет Принудительно : Нет Меню 00:00:00.000 : Chapter 01 00:02:32.151 : Chapter 02 00:06:42.568 : Chapter 03 00:09:56.095 : Chapter 04 00:12:10.521 : Chapter 05 00:15:04.528 : Chapter 06 00:18:33.862 : Chapter 07 00:23:52.639 : Chapter 08 00:26:27.168 : Chapter 09 00:30:53.893 : Chapter 10 00:34:28.983 : Chapter 11 00:38:14.041 : Chapter 12 00:42:33.676 : Chapter 13 00:46:05.137 : Chapter 14 00:50:02.582 : Chapter 15 00:53:30.582 : Chapter 16 00:56:40.230 : Chapter 17 00:59:55.550 : Chapter 18 01:02:32.957 : Chapter 19 01:05:20.082 : Chapter 20 01:08:21.930 : Chapter 21 01:10:46.325 : Chapter 22 01:13:38.205 : Chapter 23 01:17:25.182 : Chapter 24 01:21:29.342 : Chapter 25 01:24:39.407 : Chapter 26 01:29:54.639 : Chapter 27 01:34:25.034 : Chapter 28 01:35:47.408 : Chapter 29 01:41:47.643 : Chapter 30 01:46:09.905 : Chapter 31 01:50:14.482 : Chapter 32 01:53:52.492 : Chapter 33 01:58:16.589 : Chapter 34 02:02:17.538 : Chapter 35 02:05:43.077 : Chapter 36 02:09:11.869 : Chapter 37 02:10:59.476 : Chapter 38 02:14:04.703 : Chapter 39
[+] Скриншоты

Всего файлов в раздаче: 1 
Переговорщик.1998.BDRip720p_[New-team]_by_AVP_Studio.mkv4.37 GB

Похожие раздачи по запросу - Переговорщик
2024-06-02 magnet Переговорщик / The Negotiator (1998) BDRip 1080р | D, P, P2, A 16.50 GB ↑ 0 ↓ 0
2024-05-26 magnet Переговорщик / The Negotiator (1998) BDRip-AVC от New-Team | D, A 3.50 GB ↑ 0 ↓ 0
2024-05-26 magnet Переговорщик / The Negotiator (1998) HDRip-AVC от DoMiNo | D 1.08 GB ↑ 0 ↓ 0
2024-05-26 magnet Переговорщик / The Negotiator (1998) BDRip от New-Team | D 1.09 GB ↑ 0 ↓ 0
2023-12-21 magnet Переговорщик / Торг / Gyoseob / The Point Men (2023) BDRip от MegaPeer | D 1.46 GB ↑ 0 ↓ 0

Кто качает (только для создателя раздачи и модераторов): Локальные пиры отсутствуют

Комментарии


Зарегистрируйтесь чтобы добавить комментарий
Торрент клиент
byTorrent - программа для загрузки торрент-файлов.

Скачать byTorrent.exe (1,5 МБ)

Скачать byTorrent.zip (0,6 МБ)

Поддержи torrent.by
российских рублей
(300 российских рублей это 4$)

Обратная связь rss

End game ©