↑↓torrent.by
Поиск
Логин:  Регистрация
Пароль:

Мысль о тебе / The Idea of You (2024) UHD WEB-DL-HEVC 2160p | 4K | HDR10+ | P | TVShows, Red Head Sound

download Скачать торрент-файл   magnet Магнитная ссылка Размер: 16.85 GB Добавлен: 2024-05-26 17:00
Пиры будут получены из сети DHT
Последний сидер был замечен 2024-06-01 04:42
Название: Мысль о тебе Оригинальное название: The Idea of You Год выхода: 2024 Производство: США / Amazon Studios, MGM, Somewhere Pictures, Welle Entertainment Жанр: Драма, мелодрама Перевод: Профессиональный многоголосый Продолжительность: 01:57:41 Режиссёр: Майкл Шоуолтер / Michael Showalter В ролях: Энн Хэтэуэй, Николас Голицын, Элла Рубин, Энни Мумоло, Рейд Скотт, Перри Мэттфелд, Джордан Холл, Матильда Джанопулос, Мэг Миллидж, Чич Манохар Описание: Накануне своего 40-летия лос-анджелесская галеристка Солен везет 16-летнюю дочь Иззи на фестиваль Coachella. Бывший муж купил дочке и её друзьям билеты на фан-встречу с бойз-бендом August Moon, по которому те сохли в седьмом классе. Солен случайно знакомится с одним из участников группы, 24-летним англичанином Хейсом, и вскоре он появляется на пороге её галереи в окружении телохранителей и папарацци. Формат: MKV Качество: WEB-DL 2160p Видео: MPEG-H HEVC / ~19.3 Mbps / 3840x1920 / 24.000 fps / 0.109 бит/(Пиксели*Кадры) Аудио 1: AC-3, 48 kHz, 6 ch, 384 kbps | Русский, MVO | TVShows Аудио 2: AC-3, 48 kHz, 2 ch, 256 kbps | Русский, MVO | Red Head Sound Аудио 3: E-AC-3 JOC, 48 kHz, 6 ch, 576 kbps | Original Субтитры: Английские (Full, SDH)
[+] MediainfoGeneral Unique ID : 114111460908042753625981789391662616381 (0x55D911659173AD339A897A43C8100F3D) Complete name : E:DownloadThe Idea Of You (2024) WEB-DL 2160p HDR.mkv Format : Matroska Format version : Version 4 File size : 16.8 GiB Duration : 1 h 57 min Overall bit rate : 20.5 Mb/s Frame rate : 24.000 FPS Movie name : Мысль о тебе / The Idea Of You (2024) Encoded date : 2024-05-26 09:06:10 UTC Writing application : mkvmerge v84.0 ('Sleeper') 64-bit Writing library : libebml v1.4.5 + libmatroska v1.7.1 Cover : Yes Attachments : Cover.jpg Video ID : 1 Format : HEVC Format/Info : High Efficiency Video Coding Format profile : Main 10@L5@Main HDR format : SMPTE ST 2094 App 4, Version 1, HDR10+ Profile B compatible Codec ID : V_MPEGH/ISO/HEVC Duration : 1 h 57 min Bit rate : 19.3 Mb/s Width : 3 840 pixels Height : 1 920 pixels Display aspect ratio : 2.000 Frame rate mode : Constant Frame rate : 24.000 FPS Color space : YUV Chroma subsampling : 4:2:0 Bit depth : 10 bits Bits/(Pixel*Frame) : 0.109 Stream size : 15.8 GiB (94%) Title : The Idea Of You Language : English Default : Yes Forced : No Color range : Limited Color primaries : BT.2020 Transfer characteristics : PQ Matrix coefficients : BT.2020 non-constant Mastering display color primar : Display P3 Mastering display luminance : min: 0.0001 cd/m2, max: 1000 cd/m2 Maximum Content Light Level : 1014 cd/m2 Maximum Frame-Average Light Le : 196 cd/m2 Audio #1 ID : 2 Format : AC-3 Format/Info : Audio Coding 3 Commercial name : Dolby Digital Codec ID : A_AC3 Duration : 1 h 57 min Bit rate mode : Constant Bit rate : 384 kb/s Channel(s) : 6 channels Channel layout : L R C LFE Ls Rs Sampling rate : 48.0 kHz Frame rate : 31.250 FPS (1536 SPF) Compression mode : Lossy Stream size : 323 MiB (2%) Title : MVO - TVShows Language : Russian Service kind : Complete Main Default : Yes Forced : No AC3_metadata cmixlev : -4.5 dB surmixlev : -6 dB Audio #2 ID : 3 Format : AC-3 Format/Info : Audio Coding 3 Commercial name : Dolby Digital Codec ID : A_AC3 Duration : 1 h 57 min Bit rate mode : Constant Bit rate : 256 kb/s Channel(s) : 2 channels Channel layout : L R Sampling rate : 48.0 kHz Frame rate : 31.250 FPS (1536 SPF) Compression mode : Lossy Stream size : 216 MiB (1%) Title : MVO - Red Head Sound Language : Russian Service kind : Complete Main Default : No Forced : No Audio #3 ID : 4 Format : E-AC-3 JOC Format/Info : Enhanced AC-3 with Joint Object Coding Commercial name : Dolby Digital Plus with Dolby Atmos Codec ID : A_EAC3 Duration : 1 h 57 min Bit rate mode : Constant Bit rate : 576 kb/s Channel(s) : 6 channels Channel layout : L R C LFE Ls Rs Sampling rate : 48.0 kHz Frame rate : 31.250 FPS (1536 SPF) Compression mode : Lossy Stream size : 485 MiB (3%) Title : Original Language : English Service kind : Complete Main Default : No Forced : No Complexity index : 16 Number of dynamic objects : 15 Bed channel count : 1 channel Bed channel configuration : LFE Text #1 ID : 5 Format : UTF-8 Codec ID : S_TEXT/UTF8 Codec ID/Info : UTF-8 Plain Text Duration : 1 h 52 min Bit rate : 73 b/s Frame rate : 0.266 FPS Count of elements : 1797 Stream size : 60.9 KiB (0%) Title : Full Language : English Default : No Forced : No Text #2 ID : 6 Format : UTF-8 Codec ID : S_TEXT/UTF8 Codec ID/Info : UTF-8 Plain Text Duration : 1 h 55 min Bit rate : 81 b/s Frame rate : 0.293 FPS Count of elements : 2023 Stream size : 68.4 KiB (0%) Title : SDH Language : English Default : No Forced : No
[+] Скриншоты

Всего файлов в раздаче: 1 
The Idea Of You (2024) WEB-DL 2160p HDR.mkv16.85 GB

Похожие раздачи по запросу - Мысль
2024-05-30 magnet Мысль о тебе / The Idea of You (2024) WEB-DLRip-AVC | КПК | P 600.71 MB ↑ 0 ↓ 0
2024-05-11 magnet Мысль о тебе / The Idea of You (2024) WEB-DLRip от New-Team | P | TVShows 1.46 GB ↑ 1 ↓ 0
2024-05-11 magnet Мысль о тебе / The Idea of You (2024) WEB-DL 1080p от New-Team | P | TVShows 8.13 GB ↑ 0 ↓ 0
2024-05-11 magnet Мысль о тебе / The Idea of You (2024) WEB-DL 720p от селезень | P | TVShows 3.64 GB ↑ 0 ↓ 0

Комментарии


Зарегистрируйтесь чтобы добавить комментарий
Торрент клиент
byTorrent - программа для загрузки торрент-файлов.

Скачать byTorrent.exe (1,5 МБ)

Скачать byTorrent.zip (0,6 МБ)

Поддержи torrent.by
российских рублей
(300 российских рублей это 4$)

Обратная связь rss

End game ©