↑↓torrent.by
Поиск
Логин:  Регистрация
Пароль:

Хитмен. Последнее дело / Нокс уходит / Knox Goes Away (2023) BDRip-AVC от New-Team | D, P

download Скачать торрент-файл   magnet Магнитная ссылка Размер: 2.17 GB Добавлен: 2024-05-26 17:00
Пиры будут получены из сети DHT
Последний сидер был замечен 2024-05-26 20:01
Хитмен. Последнее дело / Knox Goes Away Год выпуска: 2023 Выпущено: США / Brookstreet Pictures, Sugar23, Three Point Capital Жанр: триллер Режиссер: Майкл Китон / Michael Keaton В ролях: Майкл Китон, Аль Пачино, Марша Гей Харден, Джеймс Марсден, Джоанна Кулиг, Рэй МакКиннон, Дэннис Дуган, Лила Лорен, Сьюзи Накамура, Чад Донелла О фильме: Джон Нокс — профессиональный киллер. Его деяния лежат на душе тяжким грузом, и Нокс планирует уйти в отставку. Однако появление на пороге сына, Майлза — шокированного, в крови, умоляющего помочь ему — меняет все планы. Заручившись поддержкой старого друга Хавьера, Нокс должен разработать сложную схему и запутать преследующую их полицию, чтобы искупить вину и спасти сына, с которым не общался много лет. Ситуацию осложняет то, что у Джона диагностировали быстро развивающуюся форму деменции, и теперь счет времени идет на часы. Продолжительность: 01:54:45 Перевод: #1: Профессиональный (полное дублирование) | Пифагор #2: Дублированный (неофициальный) | Soundmasters #3: Профессиональный (многоголосый закадровый) | Дорожка собрана с выделенных голосов Субтитры: Русские, английские. Раздача от: Автор релиза: JNS82. Формат: MKV Качество: BDRip-AVC Видео: MPEG-4 AVC, 1695 Кбит/с, (2,000), 1024x512, 23,976 fps Аудио #1: 48 kHz, AC3 Dolby Digital, 3/2 (L,C,R,l,r) + LFE ch, ~ 448 kbps | RUS | DUB | Пифагор Аудио #2: 48 kHz, AC3 Dolby Digital, 2/0 (L,R) ch, ~ 192 kbps | RUS | DUB | Soundmasters Аудио #3: 48 kHz, AC3 Dolby Digital, 3/2 (L,C,R,l,r) + LFE ch, ~ 384 kbps | RUS | MVO
[+] MediaInfoОбщее Уникальный идентификатор : 137925443626501685356063046634895356339 (0x67C37964FED1C03B640A71E83368B1B3) Полное имя : D:TorrentsKnox.Goes.Away.2023.BDRip-AVC_от New-Team_by_JNS82.mkv Формат : Matroska Версия формата : Version 4 Размер файла : 2,17 Гбайт Продолжительность : 1 ч. 54 м. Общий поток : 2 711 Кбит/сек Название фильма : Knox.Goes.Away.2023.BDRip-AVC_от New-Team_by_JNS82 Дата кодирования : UTC 2024-05-26 06:31:29 Программа кодирования : mkvmerge v79.0 ('Funeral Pyres') 64-bit Библиотека кодирования : libebml v1.4.4 + libmatroska v1.7.1 Видео Идентификатор : 1 Формат : AVC Формат/Информация : Advanced Video Codec Профиль формата : High@L4.1 Настройки формата : CABAC / 11 Ref Frames Параметр CABAC формата : Да Параметр RefFrames формата : 11 кадров Идентификатор кодека : V_MPEG4/ISO/AVC Продолжительность : 1 ч. 54 м. Битрейт : 1 695 Кбит/сек Ширина : 1 024 пикселя Высота : 512 пикселей Соотношение сторон : 2,000 Режим частоты кадров : Постоянный Частота кадров : 23,976 (24000/1001) кадра/сек Цветовое пространство : YUV Субдискретизация насыщенности : 4:2:0 Битовая глубина : 8 бит Тип развёртки : Прогрессивная Бит/(Пиксели*Кадры) : 0.135 Размер потока : 1,35 Гбайт (62%) Библиотека кодирования : x264 core 164 r3156+57M NewTeam t_mod_New Настройки программы : cabac=1 / ref=11 / deblock=1:-3:-2 / analyse=0x3:0x133 / me=umh / subme=10 / psy=1 / fade_compensate=0.00 / psy_rd=1.03:0.08 / mixed_ref=1 / me_range=32 / chroma_me=1 / trellis=2 / 8x8dct=1 / cqm=0 / deadzone=21,11 / fast_pskip=0 / chroma_qp_offset=-3 / threads=16 / lookahead_threads=2 / sliced_threads=0 / nr=0 / decimate=0 / interlaced=0 / bluray_compat=0 / constrained_intra=0 / fgo=0 / bframes=9 / b_pyramid=2 / b_adapt=2 / b_bias=0 / direct=3 / weightb=1 / open_gop=0 / weightp=2 / keyint=240 / keyint_min=23 / scenecut=40 / intra_refresh=0 / rc_lookahead=60 / rc=2pass / mbtree=0 / bitrate=1695 / ratetol=1.0 / qcomp=0.60 / qpmin=0:0:0 / qpmax=69:69:69 / qpstep=5 / cplxblur=20.0 / qblur=0.5 / vbv_maxrate=50000 / vbv_bufsize=62500 / nal_hrd=none / filler=0 / ip_ratio=1.40 / pb_ratio=1.30 / aq=1:1.00 / aq-sensitivity=10.00 / aq-factor=1.00:1.00:1.00 / aq2=0 / aq3=0 Язык : English Default : Да Forced : Нет Аудио #1 Идентификатор : 2 Формат : AC-3 Формат/Информация : Audio Coding 3 Коммерческое название : Dolby Digital Идентификатор кодека : A_AC3 Продолжительность : 1 ч. 54 м. Вид битрейта : Постоянный Битрейт : 448 Кбит/сек Каналы : 6 каналов Channel layout : L R C LFE Ls Rs Частота : 48,0 КГц Частота кадров : 31,250 кадров/сек (1536 SPF) Метод сжатия : С потерями Размер потока : 368 Мбайт (17%) Заголовок : DUB - Пифагор Язык : Russian Service kind : Complete Main Default : Да Forced : Нет Аудио #2 Идентификатор : 3 Формат : AC-3 Формат/Информация : Audio Coding 3 Коммерческое название : Dolby Digital Идентификатор кодека : A_AC3 Продолжительность : 1 ч. 54 м. Вид битрейта : Постоянный Битрейт : 192 Кбит/сек Каналы : 2 канала Channel layout : L R Частота : 48,0 КГц Частота кадров : 31,250 кадров/сек (1536 SPF) Метод сжатия : С потерями Размер потока : 158 Мбайт (7%) Заголовок : DUB - Soundmasters Язык : Russian Service kind : Complete Main Default : Нет Forced : Нет Аудио #3 Идентификатор : 4 Формат : AC-3 Формат/Информация : Audio Coding 3 Коммерческое название : Dolby Digital Идентификатор кодека : A_AC3 Продолжительность : 1 ч. 54 м. Вид битрейта : Постоянный Битрейт : 384 Кбит/сек Каналы : 6 каналов Channel layout : L R C LFE Ls Rs Частота : 48,0 КГц Частота кадров : 31,250 кадров/сек (1536 SPF) Метод сжатия : С потерями Размер потока : 315 Мбайт (14%) Заголовок : MVO Язык : Russian Service kind : Complete Main Default : Нет Forced : Нет Текст #1 Идентификатор : 5 Формат : UTF-8 Идентификатор кодека : S_TEXT/UTF8 Идентификатор кодека/Информация : UTF-8 Plain Text Продолжительность : 1 ч. 45 м. Битрейт : 79 бит/сек Count of elements : 1406 Размер потока : 61,1 Кбайт (0%) Заголовок : Язык : Russian Default : Нет Forced : Нет Текст #2 Идентификатор : 6 Формат : UTF-8 Идентификатор кодека : S_TEXT/UTF8 Идентификатор кодека/Информация : UTF-8 Plain Text Продолжительность : 1 ч. 45 м. Битрейт : 53 бит/сек Count of elements : 1357 Размер потока : 41,3 Кбайт (0%) Заголовок : Язык : English Default : Нет Forced : Нет Меню 00:00:00.000 : :Chapter 01 00:09:45.126 : :Chapter 02 00:17:54.657 : :Chapter 03 00:22:30.182 : :Chapter 04 00:29:25.806 : :Chapter 05 00:35:17.490 : :Chapter 06 00:41:30.488 : :Chapter 07 00:46:57.982 : :Chapter 08 00:52:54.880 : :Chapter 09 00:59:42.996 : :Chapter 10 01:09:17.820 : :Chapter 11 01:16:08.439 : :Chapter 12 01:21:22.002 : :Chapter 13 01:30:58.495 : :Chapter 14 01:40:05.041 : :Chapter 15 01:47:41.330 : :Chapter 16

Всего файлов в раздаче: 1 
Knox.Goes.Away.2023.BDRip-AVC_от New-Team_by_JNS82.mkv2.17 GB

Похожие раздачи по запросу - Хитмен
2024-05-27 magnet Хитмен. Последнее дело / Нокс уходит / Knox Goes Away (2023) BDRip 1080p от MegaPeer | D, P | Пифагор, Soundmasters 10.37 GB ↑ 0 ↓ 1
2024-05-27 magnet Хитмен. Последнее дело / Нокс уходит / Knox Goes Away (2023) BDRip-AVC от DoMiNo & селезень | D | Пифагор 1.46 GB ↑ 0 ↓ 0
2024-05-26 magnet Хитмен. Последнее дело / Нокс уходит / Knox Goes Away (2023) BDRip 720p от DoMiNo & селезень | D, P | Пифагор, Soundmasters 4.06 GB ↑ 0 ↓ 0
2024-05-26 magnet Хитмен. Последнее дело / Нокс уходит / Knox Goes Away (2023) BDRip от MegaPeer | D 2.18 GB ↑ 0 ↓ 0
2024-05-26 magnet Хитмен. Последнее дело / Нокс уходит / Knox Goes Away (2023) BDRip от MegaPeer | D | Пифагор 1.46 GB ↑ 0 ↓ 0
2024-05-11 magnet Хитмен. Последнее дело / Нокс уходит / Knox Goes Away (2023) WEB-DL 1080p от селезень | D | Кинопоиск HD 3.60 GB ↑ 0 ↓ 0
2024-05-07 magnet Хитмен. Последнее дело / Нокс уходит / Knox Goes Away (2023) WEB-DL 1080p | D | Пифагор 7.13 GB ↑ 1 ↓ 0

Комментарии


Зарегистрируйтесь чтобы добавить комментарий
Торрент клиент
byTorrent - программа для загрузки торрент-файлов.

Скачать byTorrent.exe (1,5 МБ)

Скачать byTorrent.zip (0,6 МБ)

Поддержи torrent.by
российских рублей
(300 российских рублей это 4$)

Обратная связь rss

End game ©