↑↓torrent.by
Поиск
Логин:  Регистрация
Пароль:

Охотники за привидениями / Ghostbusters (2016) WEB-DL 1080p | D | Open Matte | Theatrical Cut

download Скачать торрент-файл   magnet Магнитная ссылка Размер: 8.92 GB Раздают: 0 Качают: 1 Добавлен: 2024-05-27 05:00
Пиры будут получены из сети DHT
Последний сидер был замечен 2024-05-27 05:00
Название: Охотники за привидениями Оригинальное название: Ghostbusters Год выхода: 2016 Жанр: Фантастика, Фэнтези, Боевик, Комедия Режиссер: Пол Фиг В ролях: Мелисса МакКарти, Кристен Уиг, Кейт МакКиннон, Лесли Джонс, Крис Хемсворт, Сесили Стронг, Энди Гарсиа, Нил Кэйси, Чарльз Дэнс, Майкл Кеннет Уильямс, Билл Мюррей О фильме: Тридцать лет назад охотники за привидениями спасли Нью-Йорк от нашествия призраков, но теперь городу вновь угрожает опасность. Былые герои не могут стать на его защиту, но находятся и другие отважные люди, всю свою жизнь посвятившие изучению паранормальных явлений. Эбби Йейтс объединяется с Эрин Гилберт, пожалуй лучшим специалистом в квантовой физике, и вместе они собирают команду новых охотников за привидениями, в которую принимают отличного инженера Джиллиан Хольцман, сотрудницу метрополитена Пэтти Толан, знающую город как свои пять пальцев, и секретаря - настоящего красавчика Кэвина. Вместе они начинают борьбу с нечистой силой, терроризирующей мегаполис… Страна: США, Австралия Выпущено: Columbia Pictures, Feigco Entertainment, Ghostcorps, LStar Capital, Pascal Pictures, The Montecito Picture Company, Village Roadshow Pictures Продолжительность: 01:56:38 Перевод: Дублированный Формат: MKV Качество: WEB-DL 1080p Видео: AVC/H.264, 1920x1080, 23.976 fps, 9543 Kbps Аудио 1: AC3, 6 ch, 384 Kbps - Русский (DUB) Аудио 2: AC3, 6 ch, 384 Kbps - Украинский (DUB) Аудио 3: E-AC3, 6 ch, 640 Kbps - Английский Субтитры: русские, английские
[+] MediaInfoGeneral Unique ID : 243720048130887869472268788139588253296 (0xB75AC61C9FE9372BB79477CF887EF670) Complete name : D:Ghostbusters (2016) Open Matte 1080p.mkv Format : Matroska Format version : Version 4 / Version 2 File size : 8.92 GiB Duration : 1 h 56 min Overall bit rate mode : Variable Overall bit rate : 11.0 Mb/s Encoded date : UTC 2020-05-14 18:33:42 Writing application : mkvmerge v8.3.0 ('Over the Horizon') 32bit Writing library : libebml v1.3.1 + libmatroska v1.4.2 Video ID : 1 Format : AVC Format/Info : Advanced Video Codec Format profile : High@L4 Format settings, CABAC : Yes Format settings, ReFrames : 4 frames Codec ID : V_MPEG4/ISO/AVC Duration : 1 h 56 min Bit rate mode : Variable Bit rate : 9 543 kb/s Maximum bit rate : 15.0 Mb/s Width : 1 920 pixels Height : 1 080 pixels Display aspect ratio : 16:9 Frame rate mode : Constant Frame rate : 23.976 (24000/1001) FPS Color space : YUV Chroma subsampling : 4:2:0 Bit depth : 8 bits Scan type : Progressive Bits/(Pixel*Frame) : 0.192 Stream size : 7.77 GiB (87%) Default : Yes Forced : No Color range : Limited Color primaries : BT.709 Transfer characteristics : BT.709 Matrix coefficients : BT.709 Audio #1 ID : 2 Format : AC-3 Format/Info : Audio Coding 3 Format settings, Endianness : Big Codec ID : A_AC3 Duration : 1 h 56 min Bit rate mode : Constant Bit rate : 384 kb/s Channel(s) : 6 channels Channel positions : Front: L C R, Side: L R, LFE Sampling rate : 48.0 kHz Frame rate : 31.250 FPS (1536 spf) Bit depth : 16 bits Compression mode : Lossy Stream size : 320 MiB (4%) Title : DUB Language : Russian Service kind : Complete Main Default : Yes Forced : No Audio #2 ID : 3 Format : AC-3 Format/Info : Audio Coding 3 Format settings, Endianness : Big Codec ID : A_AC3 Duration : 1 h 56 min Bit rate mode : Constant Bit rate : 384 kb/s Channel(s) : 6 channels Channel positions : Front: L C R, Side: L R, LFE Sampling rate : 48.0 kHz Frame rate : 31.250 FPS (1536 spf) Bit depth : 16 bits Compression mode : Lossy Stream size : 320 MiB (4%) Title : DUB Language : Ukrainian Service kind : Complete Main Default : No Forced : No Audio #3 ID : 4 Format : E-AC-3 Format/Info : Enhanced Audio Coding 3 Format settings, Endianness : Big Codec ID : A_EAC3 Duration : 1 h 56 min Bit rate mode : Constant Bit rate : 640 kb/s Channel(s) : 6 channels Channel positions : Front: L C R, Side: L R, LFE Sampling rate : 48.0 kHz Frame rate : 187.500 FPS (256 spf) Compression mode : Lossy Stream size : 534 MiB (6%) Language : English Service kind : Complete Main Default : No Forced : No Text #1 ID : 5 Format : UTF-8 Codec ID : S_TEXT/UTF8 Codec ID/Info : UTF-8 Plain Text Duration : 1 h 43 min Bit rate : 1 b/s Count of elements : 28 Stream size : 1.43 KiB (0%) Title : forced Language : Russian Default : Yes Forced : No Text #2 ID : 6 Format : UTF-8 Codec ID : S_TEXT/UTF8 Codec ID/Info : UTF-8 Plain Text Duration : 1 h 55 min Bit rate : 119 b/s Count of elements : 2042 Stream size : 101 KiB (0%) Title : full Language : Russian Default : No Forced : No Text #3 ID : 7 Format : UTF-8 Codec ID : S_TEXT/UTF8 Codec ID/Info : UTF-8 Plain Text Duration : 1 h 55 min Bit rate : 80 b/s Count of elements : 2010 Stream size : 67.9 KiB (0%) Language : English Default : No Forced : No Menu 00:00:00.000 : en:Studio Logo 00:00:49.032 : en:The haunted Aldridge house 00:05:11.032 : en:Erin preps for her lecture 00:07:09.032 : en:Erin sees a book from her past on Amazon 00:08:26.032 : en:Erin goes to the Higgins Science Institute to find Abby 00:14:02.032 : en:Erin takes Abby and Jillian to the Aldridge house 00:15:20.032 : en:The women inspect the Aldridge house for a supernatural sighting 00:19:17.032 : en:Harold disciplines Erin for the youtube video of her 00:21:43.032 : en:The women ask the Dean for more funding 00:23:16.032 : en:Patty sees a ghost in the subway 00:25:27.032 : en:Bullied to being the bully 00:26:27.032 : en:The ladies get a new research lab 00:29:37.032 : en:The ladies interview Kevin for the receptionist job 00:33:55.032 : en:Patty takes the ladies to the subway where she saw the ghost 00:39:03.032 : en:Meanwhile at the lab, Patty asks to join the club 00:42:33.032 : en:Abby tests out the nuclear laser 00:43:53.032 : en:Patty gets to know the ladies 00:47:29.032 : en:The ladys go to the theater 00:49:40.032 : en:The ladies hunt a ghost at a rock concert 00:55:44.032 : en:The ladies leave the theater as heroes 00:56:29.032 : en:Martin Heiss visits the ladies during their celebration 01:01:11.032 : en:The ladies meet Mayor Bradley 01:05:13.032 : en:Jillian shows the ladies the new weapons she developed 01:07:03.032 : en:Erin discovers ley lines 01:15:42.032 : en:Abby sees Rowan again 01:20:51.032 : en:Erin tries to warn Mayor Bradley 01:22:04.032 : en:Kevin unleashes the ghosts 01:24:33.032 : en:The ladies head into the city to fight the ghosts 01:28:40.032 : en:The ladies fight the ghosts 01:41:00.032 : en:The city is restored 01:42:49.032 : en:More funding 01:45:37.032 : en:End Credits 01:55:59.032 : en:What's Zuul?
[+] Примечание & Сравнения:Исходник видео WEB-DL Amazon STARZ (периодически появляется логотип). Open Matte-версия фильма имеет большее наполнение кадра по сравнению с Blu-ray.
[+] Скриншоты

Всего файлов в раздаче: 1 
Ghostbusters (2016) Open Matte 1080p.mkv8.92 GB

Похожие раздачи по запросу - Охотники
Сегодня magnet Охотники за привидениями: Леденящий ужас / Мисливці на привидів: Крижана імперія / Ghostbusters: Frozen Empire (2024) UHD BDRemux 2160p | 4K | HDR | Dolby Vision Profile 7 | D | UKR 67.38 GB ↑ 0 ↓ 1
Вчера magnet Серия - Охотники за мирами [48 книг] (2020-2024) FB2 159.04 MB ↑ 0 ↓ 0
2024-06-22 magnet Охотники за привидениями: Леденящий ужас / Ghostbusters: Frozen Empire (2024) HDRip от AR-Team | D 1.47 GB ↑ 0 ↓ 2
2024-06-22 magnet Охотники за привидениями: Леденящий ужас / Ghostbusters: Frozen Empire (2023) BDRip 720p от ExKinoRay | D, P, A 6.54 GB ↑ 0 ↓ 5
2024-06-22 magnet Охотники за привидениями: Леденящий ужас / Ghostbusters: Frozen Empire (2023) BDRip 1080p от ExKinoRay | D, P, A 13.27 GB ↑ 0 ↓ 8
2024-06-21 magnet Охотники за привидениями: Леденящий ужас / Ghostbusters: Frozen Empire (2024) BDRip 720p от DoMiNo & селезень | D | Soundmasters, MovieDalen 4.08 GB ↑ 0 ↓ 1
2024-06-21 magnet Охотники за привидениями: Леденящий ужас / Ghostbusters: Frozen Empire (2024) BDRip от DoMiNo & селезень | D | Soundmasters, MovieDalen 1.45 GB ↑ 1 ↓ 0

Кто качает (только для создателя раздачи и модераторов):
ПользовательIP:портОтдалПринялОстатокСидируетТоррент клиентОбновился
1 Аноним 35.252.18.5:36357 0.00 B 6.85 GB 8.85 GB нет -qB4390- 22:58 2024-06-24

Комментарии


Зарегистрируйтесь чтобы добавить комментарий
Торрент клиент
byTorrent - программа для загрузки торрент-файлов.

Скачать byTorrent.exe (1,5 МБ)

Скачать byTorrent.zip (0,6 МБ)

Поддержи torrent.by
российских рублей
(300 российских рублей это 4$)

Обратная связь rss

End game ©