↑↓torrent.by
Поиск
Логин:  Регистрация
Пароль:

Атлас / Atlas (2024) WEB-DL-HEVC 2160p | 4K | Dolby Vision TV | D

download Скачать торрент-файл   magnet Магнитная ссылка Размер: 15.65 GB Раздают: 2 Качают: 4 Добавлен: 2024-05-27 05:00
Пиры будут получены из сети DHT
Последний сидер был замечен сегодня в 23:04
Информация о фильме Название: Атлас Оригинальное название: Atlas Год выхода: 2024 Жанр: фантастика, боевик, драма Режиссер: Брэд Пейтон В ролях: Дженнифер Лопес, Симу Лю, Стерлинг К. Браун, Грег Кохан, Абрахам Попула, Лана Паррия, Марк Стронг, Бриелла Гуиса, Адия Смит-Эрикссон, Логан Хант О фильме: Солдат с искусственным интеллектом решает, что единственный способ положить конец войне — это покончить с человечеством. Страна: США Продолжительность: 02:00:05 Перевод: Профессиональный (дублированный) - Videofilm International Ltd. Файл Кодек: H.265 Качество: WEB-DL 2160p Видео: HEVC, Dolby Vision Profile 5, 3840x2160 (16:9), 24.000 fps, 16,5 Mb/s, 10 bit Аудио 1: E-AC3, 48.0 kHz, 6 ch, 640 kb/s | RUS (DUB, Videofilm International Ltd) Аудио 2: E-AC3 JOC, 48.0 kHz, 6 ch, 768 kb/s | UKR (DUB, Le Doyen) Аудио 3: E-AC3 JOC, 48.0 kHz, 6 ch, 768 kb/s | ENG Субтитры: русские (forced, full), украинские (forced, full), aнглийские (SDH), польские На устройствах без поддержки Dolby Vision проигрываться не будет(или будет, но с искаженными цветами), так как в видеоряде отсутствует HDR слой
[+] MIGeneral Complete name : Atlas.2024.2160p.UHD.NF.WEB-DL.DV.HEVC-Нечипорук.mp4 Format : MPEG-4 Format profile : Base Media Codec ID : isom (isom/dby1/iso2/mp41) File size : 15.7 GiB Duration : 2 h 0 min Overall bit rate mode : Variable Overall bit rate : 18.7 Mb/s Frame rate : 24.000 FPS Movie name : Atlas.2024.2160p.UHD.NF.WEB-DL.DV.HEVC-Нечипорук Tagged date : 2024-05-26 05:10:49 UTC Writing application : Lavf60.3.100 Cover : Yes Video ID : 1 Format : HEVC Format/Info : High Efficiency Video Coding Format profile : Main 10@L5@Main HDR format : Dolby Vision, Version 1.0, Profile 5, dvhe.05.06, BL+RPU Codec ID : dvhe Codec ID/Info : High Efficiency Video Coding with Dolby Vision Duration : 2 h 0 min Bit rate : 16.5 Mb/s Width : 3 840 pixels Height : 2 160 pixels Display aspect ratio : 16:9 Frame rate mode : Constant Frame rate : 24.000 FPS Color space : YUV Chroma subsampling : 4:2:0 Bit depth : 10 bits Bits/(Pixel*Frame) : 0.083 Stream size : 13.8 GiB (88%) Title : Atlas.2024.2160p.UHD.NF.WEB-DL.DV.HEVC-Нечипорук Language : English Tagged date : 2024-05-26 05:10:49 UTC Color range : Full Codec configuration box : hvcC+dvcC Audio #1 ID : 3 Format : E-AC-3 Format/Info : Enhanced AC-3 Commercial name : Dolby Digital Plus Codec ID : ec-3 Duration : 2 h 0 min Bit rate mode : Constant Bit rate : 640 kb/s Channel(s) : 6 channels Channel layout : L R C LFE Ls Rs Sampling rate : 48.0 kHz Frame rate : 31.250 FPS (1536 SPF) Compression mode : Lossy Stream size : 550 MiB (3%) Title : Дубляж Videofilm Int. Language : Russian Service kind : Complete Main Default : Yes Alternate group : 1 Tagged date : 2024-05-26 05:10:49 UTC Audio #2 ID : 4 Format : E-AC-3 JOC Format/Info : Enhanced AC-3 with Joint Object Coding Commercial name : Dolby Digital Plus with Dolby Atmos Codec ID : ec-3 Duration : 2 h 0 min Bit rate mode : Constant Bit rate : 768 kb/s Channel(s) : 6 channels Channel layout : L R C LFE Ls Rs Sampling rate : 48.0 kHz Frame rate : 31.250 FPS (1536 SPF) Compression mode : Lossy Stream size : 660 MiB (4%) Title : Дубляж LeDoyen Language : Ukrainian Service kind : Complete Main Default : No Alternate group : 1 Tagged date : 2024-05-26 05:10:49 UTC Complexity index : Not present / 16 Number of dynamic objects : 15 Bed channel count : 1 channel Bed channel configuration : LFE Audio #3 ID : 5 Format : E-AC-3 JOC Format/Info : Enhanced AC-3 with Joint Object Coding Commercial name : Dolby Digital Plus with Dolby Atmos Codec ID : ec-3 Duration : 2 h 0 min Bit rate mode : Constant Bit rate : 768 kb/s Channel(s) : 6 channels Channel layout : L R C LFE Ls Rs Sampling rate : 48.0 kHz Frame rate : 31.250 FPS (1536 SPF) Compression mode : Lossy Stream size : 660 MiB (4%) Title : Original Language : English Service kind : Complete Main Default : No Alternate group : 1 Tagged date : 2024-05-26 05:10:49 UTC Complexity index : Not present / 16 Number of dynamic objects : 15 Bed channel count : 1 channel Bed channel configuration : LFE Text #1 ID : 6 Format : Timed Text Muxing mode : sbtl Codec ID : tx3g Duration : 1 h 48 min Bit rate mode : Variable Bit rate : 3 b/s Frame rate : 0.018 FPS Stream size : 2.04 KiB (0%) Title : Форсированные Language : Russian Default : Yes Forced : No Alternate group : 3 Count of events : 57 Text #2 ID : 7 Format : Timed Text Muxing mode : sbtl Codec ID : tx3g Duration : 1 h 57 min Bit rate mode : Variable Bit rate : 97 b/s Frame rate : 0.374 FPS Stream size : 83.8 KiB (0%) Title : Полные Language : Russian Default : No Forced : No Alternate group : 3 Count of events : 1319 Text #3 ID : 8 Format : Timed Text Muxing mode : sbtl Codec ID : tx3g Duration : 1 h 48 min Bit rate mode : Variable Bit rate : 3 b/s Frame rate : 0.017 FPS Stream size : 2.34 KiB (0%) Title : Форсованнi Language : Ukrainian Default : No Forced : No Alternate group : 3 Count of events : 54 Text #4 ID : 9 Format : Timed Text Muxing mode : sbtl Codec ID : tx3g Duration : 1 h 57 min Bit rate mode : Variable Bit rate : 96 b/s Frame rate : 0.378 FPS Stream size : 82.3 KiB (0%) Title : Повнi Language : Ukrainian Default : No Forced : No Alternate group : 3 Count of events : 1333 Text #5 ID : 10 Format : Timed Text Muxing mode : sbtl Codec ID : tx3g Duration : 1 h 48 min Bit rate mode : Variable Bit rate : 68 b/s Frame rate : 0.507 FPS Stream size : 54.3 KiB (0%) Title : Full SDH Language : English Service kind : Hearing Impaired Default : No Forced : No Alternate group : 3 Count of events : 1652 Text #6 ID : 11 Format : Timed Text Muxing mode : sbtl Codec ID : tx3g Duration : 1 h 57 min Bit rate mode : Variable Bit rate : 48 b/s Frame rate : 0.364 FPS Stream size : 41.1 KiB (0%) Title : Pełne napisy Language : Polish Service kind : Dubbed Default : No Forced : No Alternate group : 3 Count of events : 1283
[+] Скриншоты

Всего файлов в раздаче: 1 
Atlas.2024.2160p.UHD.NF.WEB-DL.DV.HEVC-Нечипорук.mp415.65 GB

Похожие раздачи по запросу - Атлас
2024-06-14 magnet Атлас / Atlas (2024) WEB-DLRip-AVC от ExKinoRay | D 745.83 MB ↑ 0 ↓ 0
2024-05-31 magnet Атлас / Atlas [2024, фантастика, боевик, драма, WEB-DLRip-AVC] Dub (Videofilm International Ltd.) 2.18 GB ↑ 3 ↓ 3
2024-05-28 magnet Атлас / Atlas (2024) WEB-DLRip-AVC | КПК | D | Netflix | UKR 544.78 MB ↑ 0 ↓ 0
2024-05-28 magnet Атлас / Atlas (2024) WEB-DLRip от ExKinoRay | P 745.76 MB ↑ 1 ↓ 0
2024-05-27 magnet Атлас / Atlas (2024) WEB-DL 1080p от Jaskier | P 4.86 GB ↑ 0 ↓ 3
2024-05-26 magnet Атлас / Atlas (2024) UHD WEB-DL-HEVC 2160p | 4K | SDR | D, P2, L 10.48 GB ↑ 0 ↓ 2
2024-05-26 magnet Атлас / Atlas (2024) WEB-DLRip-AVC | КПК | D 544.80 MB ↑ 0 ↓ 0

Кто качает (только для создателя раздачи и модераторов):
ПользовательIP:портОтдалПринялОстатокСидируетТоррент клиентОбновился
1 Аноним 37.213.151.104:46605 952.12 MB 0.00 B 0.00 B да -UT360W- 23:04 2024-06-17
2 Аноним 178.167.50.106:22974 2.47 MB 0.00 B 0.00 B да -BI3400- 23:04 2024-06-17
3 Аноним 164.160.18.5:40511 672.00 kB 223.18 MB 15.59 GB нет -qB4390- 22:54 2024-06-17
4 Аноним 235.14.50.194:38371 0.00 B 0.00 B 8589934592.00 GB нет -qB4390- 23:10 2024-06-17
5 Аноним 12.0.73.95:35099 0.00 B 0.00 B 8589934592.00 GB нет -qB4390- 23:06 2024-06-17
6 Аноним 186.244.57.86:35195 0.00 B 0.00 B 8589934592.00 GB нет -qB4390- 23:08 2024-06-17

Комментарии


Зарегистрируйтесь чтобы добавить комментарий
Торрент клиент
byTorrent - программа для загрузки торрент-файлов.

Скачать byTorrent.exe (1,5 МБ)

Скачать byTorrent.zip (0,6 МБ)

Поддержи torrent.by
российских рублей
(300 российских рублей это 4$)

Обратная связь rss

End game ©