↑↓torrent.by
Поиск
Логин:  Регистрация
Пароль:

Хитмен. Последнее дело / Нокс уходит / Knox Goes Away (2023) BDRip-AVC от DoMiNo & селезень | D | Пифагор

download Скачать торрент-файл   magnet Магнитная ссылка Размер: 1.46 GB Добавлен: 2024-05-27 05:00
Пиры будут получены из сети DHT
Последний сидер был замечен 2024-06-18 23:13
Информация о фильме Название: Хитмен. Последнее дело Оригинальное название: Knox Goes Away Год выхода: 2023 Жанр: Триллер, криминал Режиссер: Майкл Китон В ролях: Майкл Китон, Аль Пачино, Марша Гей Харден, Джеймс Марсден, Джоанна Кулиг, Рэй МакКиннон, Дэннис Дуган, Лила Лорен, Сьюзи Накамура, Чад Донелла О фильме: Нокс - профессиональный киллер. Последние годы своей жизни он мечтал лишь об одном - забыть о том, что совершил. Но сейчас, когда деменция уничтожает его личность, хитмэну придётся приложить все силы, чтобы спасти от рук продажных копов своего сына. Счёт идет на часы. Он уже не помнит, кто перед ним, друг или враг, лишь указательный палец всё так же уверенно спускает курок. Страна: США, Brookstreet Pictures, Sugar23, Three Point Capital (TPC) Продолжительность: 01:54:45 Перевод: Дублированный (официальный) | ПИФАГОР Роли дублировали: Владимир Зайцев, Валерий Сторожик, Константин Карасик, Ульяна Чеботарь, Анастасия Лапина, Глеб Глушенков, Александр Хорлин, Даниил Эльдаров, Ирина Киреева, Дмитрий Лунёв, Владимир Ерёмин, Нана Саркисян, Ольга Зубкова, Александр Лаврентьев, Алексей Терехов, Анатолий Нокс, Валентина Варлашина, Мария Данилова, Юлия Иванова Субтитры: Русские (Full), Английские Файл Формат: Matroska Качество: BDRip-AVC Видео: 1024x512 at 23.976 fps, x264@L4.1, ~1374 kbps Аудио: AC3, 6 ch, ~448 kbps - | Русский | | DUB | ПИФАГОР Формат субтитров: softsub (SRT) ***Рип от: -=DoMiNo=-
[+] M/Ix264 : frame I:1295 Avg QP:14.11 size: 59358 x264 : frame P:28102 Avg QP:15.98 size: 19342 x264 : frame B:135700 Avg QP:18.13 size: 4089 x264 : consecutive B-frames: 1.5% 1.1% 3.3% 8.8% 12.7% 38.1% 9.3% 4.0% 3.6% 2.1% 2.9% 3.2% 2.5% 2.8% 1.6% 0.5% 2.3% General Unique ID : 231487224396735912790096228490921918272 (0xAE26D15627C42F42E7EA5F8342443F40) Complete name : I:Knox.Goes.Away.2023.D.BDRip.x264.seleZen.mkv Format : Matroska Format version : Version 4 File size : 1.46 GiB Duration : 1 h 54 min Overall bit rate : 1 816 kb/s Frame rate : 23.976 FPS Movie name : Knox.Goes.Away.2023.D.BDRip.x264.seleZen Encoded date : 2024-05-26 13:01:47 UTC Writing application : mkvmerge v84.0 ('Sleeper') 64-bit Writing library : libebml v1.4.5 + libmatroska v1.7.1 Cover : Yes Attachments : cover.jpg / small_cover.jpg Video ID : 1 Format : AVC Format/Info : Advanced Video Codec Format profile : High@L4.1 Format settings : CABAC / 15 Ref Frames Format settings, CABAC : Yes Format settings, Reference : 15 frames Codec ID : V_MPEG4/ISO/AVC Duration : 1 h 54 min Bit rate : 1 374 kb/s Width : 1 024 pixels Height : 512 pixels Display aspect ratio : 2.000 Frame rate mode : Constant Frame rate : 23.976 (24000/1001) FPS Color space : YUV Chroma subsampling : 4:2:0 Bit depth : 8 bits Scan type : Progressive Bits/(Pixel*Frame) : 0.109 Stream size : 1.09 GiB (75%) Title : -=DoMiNo=- Writing library : x264 core 164 r3191 -DoMiNo Encoding settings : cabac=1 / ref=15 / deblock=1:-2:-2 / analyse=0x3:0x133 / me=umh / subme=10 / psy=1 / psy_rd=1.05:0.04 / mixed_ref=1 / me_range=32 / chroma_me=1 / trellis=2 / 8x8dct=1 / cqm=0 / deadzone=21,11 / fast_pskip=0 / chroma_qp_offset=-3 / threads=16 / lookahead_threads=4 / sliced_threads=0 / nr=0 / decimate=0 / interlaced=0 / bluray_compat=0 / constrained_intra=0 / bframes=16 / b_pyramid=2 / b_adapt=2 / b_bias=0 / direct=3 / weightb=1 / open_gop=0 / weightp=2 / keyint=240 / keyint_min=23 / scenecut=40 / intra_refresh=0 / rc_lookahead=60 / rc=2pass / mbtree=0 / bitrate=1374 / ratetol=1.0 / qcomp=0.70 / qpmin=0 / qpmax=69 / qpstep=4 / cplxblur=20.0 / qblur=0.5 / vbv_maxrate=50000 / vbv_bufsize=62500 / nal_hrd=none / filler=0 / ip_ratio=1.14 / pb_ratio=1.34 / aq=3:0.80 Language : English Default : Yes Forced : No Audio ID : 2 Format : AC-3 Format/Info : Audio Coding 3 Commercial name : Dolby Digital Codec ID : A_AC3 Duration : 1 h 54 min Bit rate mode : Constant Bit rate : 448 kb/s Channel(s) : 6 channels Channel layout : L R C LFE Ls Rs Sampling rate : 48.0 kHz Frame rate : 31.250 FPS (1536 SPF) Compression mode : Lossy Stream size : 368 MiB (25%) Title : DUB - Пифагор Language : Russian Service kind : Complete Main Default : Yes Forced : No Dialog Normalization : -25 dB compr : -0.28 dB cmixlev : -3.0 dB surmixlev : -3 dB dmixmod : Lo/Ro ltrtcmixlev : -3.0 dB ltrtsurmixlev : -3.0 dB lorocmixlev : -3.0 dB lorosurmixlev : -3.0 dB dialnorm_Average : -25 dB dialnorm_Minimum : -25 dB dialnorm_Maximum : -25 dB Text #1 ID : 3 Format : UTF-8 Codec ID : S_TEXT/UTF8 Codec ID/Info : UTF-8 Plain Text Duration : 1 h 45 min Bit rate : 79 b/s Frame rate : 0.222 FPS Count of elements : 1406 Stream size : 61.1 KiB (0%) Title : Full Language : Russian Default : No Forced : No Text #2 ID : 4 Format : UTF-8 Codec ID : S_TEXT/UTF8 Codec ID/Info : UTF-8 Plain Text Duration : 1 h 45 min Bit rate : 53 b/s Frame rate : 0.215 FPS Count of elements : 1357 Stream size : 41.3 KiB (0%) Title : Full Language : English Default : No Forced : No Menu 00:00:00.000 : Chapter 01 00:09:45.126 : Chapter 02 00:17:54.657 : Chapter 03 00:22:30.182 : Chapter 04 00:29:25.806 : Chapter 05 00:35:17.490 : Chapter 06 00:41:30.488 : Chapter 07 00:46:57.982 : Chapter 08 00:52:54.880 : Chapter 09 00:59:42.996 : Chapter 10 01:09:17.820 : Chapter 11 01:16:08.439 : Chapter 12 01:21:22.002 : Chapter 13 01:30:58.495 : Chapter 14 01:40:05.041 : Chapter 15 01:47:41.330 : Chapter 16
Релиз: Присоединяйся к: Кликай на баннеры.

Всего файлов в раздаче: 1 
Knox.Goes.Away.2023.D.BDRip.x264.seleZen.mkv1.46 GB

Похожие раздачи по запросу - Хитмен
2024-05-27 magnet Хитмен. Последнее дело / Нокс уходит / Knox Goes Away (2023) BDRip 1080p от MegaPeer | D, P | Пифагор, Soundmasters 10.37 GB ↑ 0 ↓ 1
2024-05-26 magnet Хитмен. Последнее дело / Нокс уходит / Knox Goes Away (2023) BDRip 720p от DoMiNo & селезень | D, P | Пифагор, Soundmasters 4.06 GB ↑ 0 ↓ 0
2024-05-26 magnet Хитмен. Последнее дело / Нокс уходит / Knox Goes Away (2023) BDRip-AVC от New-Team | D, P 2.17 GB ↑ 0 ↓ 0
2024-05-26 magnet Хитмен. Последнее дело / Нокс уходит / Knox Goes Away (2023) BDRip от MegaPeer | D 2.18 GB ↑ 0 ↓ 0
2024-05-26 magnet Хитмен. Последнее дело / Нокс уходит / Knox Goes Away (2023) BDRip от MegaPeer | D | Пифагор 1.46 GB ↑ 0 ↓ 0
2024-05-11 magnet Хитмен. Последнее дело / Нокс уходит / Knox Goes Away (2023) WEB-DL 1080p от селезень | D | Кинопоиск HD 3.60 GB ↑ 0 ↓ 0
2024-05-07 magnet Хитмен. Последнее дело / Нокс уходит / Knox Goes Away (2023) WEB-DL 1080p | D | Пифагор 7.13 GB ↑ 1 ↓ 0

Комментарии


Зарегистрируйтесь чтобы добавить комментарий
Торрент клиент
byTorrent - программа для загрузки торрент-файлов.

Скачать byTorrent.exe (1,5 МБ)

Скачать byTorrent.zip (0,6 МБ)

Поддержи torrent.by
российских рублей
(300 российских рублей это 4$)

Обратная связь rss

End game ©