↑↓torrent.by
Поиск
Логин:  Регистрация
Пароль:

Мать невесты / Мати нареченої / Mother of the Bride (2024) WEB-DL 1080p | D | Netflix | UKR

download Скачать торрент-файл   magnet Магнитная ссылка Размер: 4.39 GB Добавлен: 2024-05-27 11:00
Пиры будут получены из сети DHT
Последний сидер был замечен 2024-05-27 20:27
Информация о фильме Название: Мать невесты Оригинальное название: Mother of the Bride Год выхода: 2024 Жанр: драма, мелодрама, комедия Режиссер: Марк Уотерс В ролях: Брук Шилдс, Миранда Косгров, Бенджамин Брэтт, Рэйчел Харрис, Шон Тил, Чад Майкл Мюррэй, Майкл Макдональд, Уилсон Крус, Тэсним Рок, Далип Сондхи О фильме: Всемирно известный генетик Лана воссоединяется со своей дочерью Эммой и внезапно узнает, что девушка вскоре выйдет замуж за Эр Джея. Лана бросает решение насущных проблем и отправляется из Сан-Франциско в курортный регион Таиланда, где пройдет церемония бракосочетания, и неожиданно сталкивается с Уиллом — своим бывшим возлюбленным и отцом Эр Джея. На тайском курорте между бывшими любовниками вспыхивает искра, воспламеняющая былые чувства, однако на пути к собственному счастью Лане и Уиллу предстоит пройти через множество испытаний.... Страна: США Продолжительность: 01:30:24 Перевод: Профессиональный дублированный | Так Треба Продакшн / Netflix (Украинский) Файл Кодек: x.264 Качество: WEB-DL 1080p Видео: AVC, 1920x1080 (16:9), 23.976 fps, 5 000 kb/s Аудио 1: E-AC3, 48.0 kHz, 6 ch, 640 kb/s | UKR Аудио 2: AC3, 48.0 kHz, 6 ch, 640 kb/s | UKR Аудио 3: E-AC3 JOC, 48.0 kHz, 6 ch, 768 kb/s | ENG Субтитры: украинские (forced, full), английские (SDH) Трейлер
[+] MIGeneral Unique ID : 226917820407601711344583111987383183096 (0xAAB6C8537AF5E85BB211573465FF26F8) Complete name : Mother of the Bride (2024) WEB-DL 1080p Ukr Eng.mkv Format : Matroska Format version : Version 4 File size : 4.39 GiB Duration : 1 h 30 min Overall bit rate mode : Variable Overall bit rate : 6 956 kb/s Encoded date : UTC 2024-05-22 09:42:45 Writing application : mkvmerge v8.3.0 ('Over the Horizon') 64bit Writing library : libebml v1.3.1 + libmatroska v1.4.2 Video ID : 1 Format : AVC Format/Info : Advanced Video Codec Format profile : Main@L4 Format settings : CABAC / 3 Ref Frames Format settings, CABAC : Yes Format settings, Reference frames : 3 frames Codec ID : V_MPEG4/ISO/AVC Duration : 1 h 30 min Bit rate mode : Variable Bit rate : 5 000 kb/s Maximum bit rate : 7 500 kb/s Width : 1 920 pixels Height : 1 080 pixels Display aspect ratio : 16:9 Frame rate mode : Constant Frame rate : 23.976 (24000/1001) FPS Color space : YUV Chroma subsampling : 4:2:0 Bit depth : 8 bits Scan type : Progressive Bits/(Pixel*Frame) : 0.101 Stream size : 3.10 GiB (71%) Writing library : x264 core 148 r2727 7d026e8 Encoding settings : cabac=1 / ref=3 / deblock=1:0:0 / analyse=0x1:0x111 / me=umh / subme=10 / psy=1 / psy_rd=1.00:0.00 / mixed_ref=1 / me_range=24 / chroma_me=1 / trellis=2 / 8x8dct=0 / cqm=0 / deadzone=21,11 / fast_pskip=1 / chroma_qp_offset=-2 / threads=6 / lookahead_threads=1 / sliced_threads=0 / nr=0 / decimate=1 / interlaced=0 / bluray_compat=0 / stitchable=1 / constrained_intra=0 / bframes=2 / b_pyramid=0 / b_adapt=2 / b_bias=0 / direct=3 / weightb=1 / open_gop=0 / weightp=2 / keyint=240 / keyint_min=121 / scenecut=0 / intra_refresh=0 / rc_lookahead=48 / rc=2pass / mbtree=1 / bitrate=5000 / ratetol=1.0 / qcomp=0.50 / qpmin=6 / qpmax=51 / qpstep=4 / cplxblur=20.0 / qblur=0.5 / vbv_maxrate=7500 / vbv_bufsize=10000 / nal_hrd=vbr / filler=0 / ip_ratio=1.40 / aq=1:1.00 Default : Yes Forced : No Audio #1 ID : 2 Format : E-AC-3 Format/Info : Enhanced AC-3 Commercial name : Dolby Digital Plus Codec ID : A_EAC3 Duration : 1 h 30 min Bit rate mode : Constant Bit rate : 640 kb/s Channel(s) : 6 channels Channel layout : L R C LFE Ls Rs Sampling rate : 48.0 kHz Frame rate : 31.250 FPS (1536 SPF) Compression mode : Lossy Stream size : 414 MiB (9%) Title : DUB (Netflix) Language : Ukrainian Service kind : Complete Main Default : Yes Forced : No Audio #2 ID : 3 Format : AC-3 Format/Info : Audio Coding 3 Commercial name : Dolby Digital Codec ID : A_AC3 Duration : 1 h 30 min Bit rate mode : Constant Bit rate : 640 kb/s Channel(s) : 6 channels Channel layout : L R C LFE Ls Rs Sampling rate : 48.0 kHz Frame rate : 31.250 FPS (1536 SPF) Compression mode : Lossy Stream size : 414 MiB (9%) Title : DUB (Netflix) Language : Ukrainian Service kind : Complete Main Default : No Forced : No Audio #3 ID : 4 Format : E-AC-3 JOC Format/Info : Enhanced AC-3 with Joint Object Coding Commercial name : Dolby Digital Plus with Dolby Atmos Codec ID : A_EAC3 Duration : 1 h 30 min Bit rate mode : Constant Bit rate : 768 kb/s Channel(s) : 6 channels Channel layout : L R C LFE Ls Rs Sampling rate : 48.0 kHz Frame rate : 31.250 FPS (1536 SPF) Compression mode : Lossy Stream size : 497 MiB (11%) Title : Original Language : English Service kind : Complete Main Default : No Forced : No Complexity index : 16 Number of dynamic objects : 15 Bed channel count : 1 channel Bed channel configuration : LFE Text #1 ID : 5 Format : UTF-8 Codec ID : S_TEXT/UTF8 Codec ID/Info : UTF-8 Plain Text Duration : 36 min 56 s Bit rate : 1 b/s Count of elements : 8 Stream size : 314 Bytes (0%) Title : Forced Language : Ukrainian Default : Yes Forced : No Text #2 ID : 6 Format : UTF-8 Codec ID : S_TEXT/UTF8 Codec ID/Info : UTF-8 Plain Text Duration : 1 h 27 min Bit rate : 121 b/s Count of elements : 1481 Stream size : 78.0 KiB (0%) Title : Full Language : Ukrainian Default : No Forced : No Text #3 ID : 7 Format : UTF-8 Codec ID : S_TEXT/UTF8 Codec ID/Info : UTF-8 Plain Text Duration : 1 h 28 min Bit rate : 98 b/s Count of elements : 1833 Stream size : 63.8 KiB (0%) Title : SDH Language : English Default : No Forced : No
[+] Скриншоты

Всего файлов в раздаче: 1 
Mother of the Bride (2024) WEB-DL 1080p Ukr Eng.mkv4.39 GB

Похожие раздачи по запросу - Мать
2024-05-27 magnet На правах матери / Мать и мачеха [S01] (2024) WEB-DLRip от Generalfilm | КПК 1.43 GB ↑ 0 ↓ 0
2024-05-16 magnet Мать невесты / Mother of the Bride (2024) WEB-DLRip от New-Team | P | TVShows 1.46 GB ↑ 0 ↓ 1
2023-11-18 magnet Ансамбль Христа Спасителя и Мать Сыра Земля - Отрицательный Отбор (2023) MP3 118.23 MB ↑ 0 ↓ 0

Кто качает (только для создателя раздачи и модераторов): Локальные пиры отсутствуют

Комментарии


Зарегистрируйтесь чтобы добавить комментарий
Торрент клиент
byTorrent - программа для загрузки торрент-файлов.

Скачать byTorrent.exe (1,5 МБ)

Скачать byTorrent.zip (0,6 МБ)

Поддержи torrent.by
российских рублей
(300 российских рублей это 4$)

Обратная связь rss

End game ©