↑↓torrent.by
Поиск
Логин:  Регистрация
Пароль:

Оккупация: миссия «Дождь» / Occupation: Rainfall (2020) BDRip 720p от ELEKTRI4KA | iTunes

download Скачать торрент-файл   magnet Магнитная ссылка Размер: 6.29 GB Добавлен: 2024-05-27 11:00
Пиры будут получены из сети DHT
Последний сидер был замечен вчера в 15:45
«Планета дает отпор» Информация о фильме Название: Оккупация: миссия «Дождь» Оригинальное название: Occupation: Rainfall Год выхода: 2020 Жанр: Фантастика, боевик Режиссер: Люк Спарк В ролях: Дэниэл Юинг, Темуэра Моррисон, Дэниэл Гиллис, Лоуренс Макор, Захари Гарред, Джет Трантер, Марк Коулз Смит, Тристан Гоу, Кен Жонг, Джейсон Айзекс О фильме: Прошло два года после инопланетного вторжения. Пришельцам удалось уничтожить практически всё человечество, но Сидней ещё не повержен — выжившие и примкнувшие к ним инакомыслящие инопланетяне продолжают отчаянно сражаться, но их силы на исходе. Тем временем небольшая группа людей узнает о заговоре, который может положить конец войне. Выпущено: Австралия / Occupation Two Productions Продолжительность: 02:08:17 Озвучивание: Дублированное | iTunes Файл Формат: MKV Качество: BDRip 720p Видео: MPEG-4 AVC, 6000 Kb/s, 1280x534 Аудио #1: Russian: 48 kHz, AC3 Dolby Digital, 3/2 (L, C, R, l, r) + LFE ch, ~384 Kbps | DUB | iTunes Аудио #2: English: 48 kHz, AC3 Dolby Digital, 3/2 (L, C, R, l, r) + LFE ch, ~640 Kbps | Original Субтитры: Russian (Forced, Full), English Дополнительно: Сохранены оригинальные чаптеры. Релиз группы: &
[+] MediaInfo:Complete name: Okkupatsiya.missiya.Dozhd.2020.BDRip.720p.ELEKTRI4KA.UNIONGANG.mkv Format: Matroska Format version: Version 4 File size: 6.29 GiB Duration: 2 h 8 min Overall bit rate: 7 022 kb/s Movie name: Okkupatsiya.missiya.Dozhd.2020.BDRip.720p.ELEKTRI4KA.UNIONGANG. Encoded date: UTC 2021-07-22 18:59:49 Writing application: mkvmerge v8.3.0 ('Over the Horizon') 32bit Writing library: libebml v1.3.1 + libmatroska v1.4.2 Video ID: 1 Format: AVC Format/Info: Advanced Video Codec Format profile: High@L4.1 Format settings: CABAC / 12 Ref Frames Format settings, CABAC: Yes Format settings, Reference frames: 12 frames Codec ID: V_MPEG4/ISO/AVC Duration: 2 h 8 min Bit rate: 6 000 kb/s Width: 1 280 pixels Height: 534 pixels Display aspect ratio: 2.40:1 Frame rate mode: Constant Frame rate: 23.976 (24000/1001) FPS Color space: YUV Chroma subsampling: 4:2:0 Bit depth: 8 bits Scan type: Progressive Bits/(Pixel*Frame): 0.366 Stream size: 5.37 GiB (85%) Writing library: x264 core 157 r2958 57baac4 Encoding settings: cabac=1 / ref=12 / deblock=1:-3:-3 / analyse=0x3:0x133 / me=umh / subme=10 / psy=1 / psy_rd=1.00:0.00 / mixed_ref=1 / me_range=32 / chroma_me=1 / trellis=2 / 8x8dct=1 / cqm=0 / deadzone=21, 11 / fast_pskip=0 / chroma_qp_offset=-2 / threads=49 / lookahead_threads=4 / sliced_threads=0 / nr=0 / decimate=0 / interlaced=0 / bluray_compat=0 / constrained_intra=0 / bframes=8 / b_pyramid=2 / b_adapt=2 / b_bias=0 / direct=3 / weightb=0 / open_gop=0 / weightp=2 / keyint=240 / keyint_min=24 / scenecut=40 / intra_refresh=0 / rc=2pass / mbtree=0 / bitrate=6000 / ratetol=1.0 / qcomp=0.60 / qpmin=0 / qpmax=69 / qpstep=4 / cplxblur=20.0 / qblur=0.5 / ip_ratio=1.40 / pb_ratio=1.30 / aq=1:1.00 Language: English Default: Yes Forced: No Color range: Limited Color primaries: BT.709 Transfer characteristics: BT.709 Matrix coefficients: BT.709 Audio #1 ID: 2 Format: AC-3 Format/Info: Audio Coding 3 Commercial name: Dolby Digital Codec ID: A_AC3 Duration: 2 h 8 min Bit rate mode: Constant Bit rate: 384 kb/s Channel(s): 6 channels Channel layout: L R C LFE Ls Rs Sampling rate: 48.0 kHz Frame rate: 31.250 FPS (1536 SPF) Compression mode: Lossy Stream size: 352 MiB (5%) Title: Dub (iTunes) Language: Russian Service kind: Complete Main Default: Yes Forced: Yes Audio #2 ID: 3 Format: AC-3 Format/Info: Audio Coding 3 Commercial name: Dolby Digital Codec ID: A_AC3 Duration: 2 h 8 min Bit rate mode: Constant Bit rate: 640 kb/s Channel(s): 6 channels Channel layout: L R C LFE Ls Rs Sampling rate: 48.0 kHz Frame rate: 31.250 FPS (1536 SPF) Compression mode: Lossy Stream size: 587 MiB (9%) Title: Original Language: English Service kind: Complete Main Default: No Forced: No Text #1 ID: 4 Format: UTF-8 Codec ID: S_TEXT/UTF8 Codec ID/Info: UTF-8 Plain Text Duration: 22 s 646 ms Bit rate: 69 b/s Count of elements: 4 Stream size: 197 Bytes (0%) Title: Forced Language: Russian Default: Yes Forced: Yes Text #2 ID: 5 Format: UTF-8 Codec ID: S_TEXT/UTF8 Codec ID/Info: UTF-8 Plain Text Duration: 2 h 1 min Bit rate: 66 b/s Count of elements: 1581 Stream size: 58.6 KiB (0%) Title: Full Language: Russian Default: No Forced: No Text #3 ID: 6 Format: UTF-8 Codec ID: S_TEXT/UTF8 Codec ID/Info: UTF-8 Plain Text Duration: 2 h 1 min Bit rate: 46 b/s Count of elements: 1472 Stream size: 41.0 KiB (0%) Title: Full Language: English Default: No Forced: No Menu 00:00:00.000: en:Chapter 01 00:12:24.535: en:Chapter 02 00:20:19.009: en:Chapter 03 00:31:39.648: en:Chapter 04 00:38:53.706: en:Chapter 05 00:49:36.974: en:Chapter 06 00:59:38.700: en:Chapter 07 01:13:27.528: en:Chapter 08 01:27:06.471: en:Chapter 09 01:39:08.860: en:Chapter 10 01:49:48.540: en:Chapter 11 02:01:42.670: en:Chapter 12
[+] Скриншоты

Всего файлов в раздаче: 1 
Okkupatsiya.missiya.Dozhd.2020.BDRip.720p.ELEKTRI4KA.UNIONGANG.mkv6.29 GB

Похожие раздачи по запросу - Оккупация
2024-06-01 magnet Оккупация: миссия «Дождь» / Occupation: Rainfall (2020) BDRip от MegaPeer | iTunes 2.13 GB ↑ 0 ↓ 0

Кто качает (только для создателя раздачи и модераторов): Локальные пиры отсутствуют

Комментарии


Зарегистрируйтесь чтобы добавить комментарий
Торрент клиент
byTorrent - программа для загрузки торрент-файлов.

Скачать byTorrent.exe (1,5 МБ)

Скачать byTorrent.zip (0,6 МБ)

Поддержи torrent.by
российских рублей
(300 российских рублей это 4$)

Обратная связь rss

End game ©