↑↓torrent.by
Поиск
Логин:  Регистрация
Пароль:

Ти-Рекс. Король динозавров / Wo shi ba wang long / I Am T-Rex (2022) WEB-DLRip-AVC от DoMiNo & селезень | D | Локализованная версия

download Скачать торрент-файл   magnet Магнитная ссылка Размер: 1.27 GB Добавлен: 2024-05-27 11:00
Пиры будут получены из сети DHT
Последний сидер был замечен 2024-06-01 20:42
Информация о мультфильме Название: Ти-Рекс. Король динозавров Оригинальное название: Wo shi ba wang long / I Am T-Rex Год выхода: 2022 Жанр: Мультфильм, боевик, приключения, семейный Режиссер: Шан Мин, Сы Линь В ролях: Линь Лан, И Но, Бай Лун, Вэнь Чиюй, Чжан Юаньтао, Ба Хэ О мультфильме: «Чтобы победить страх, надо смело взглянуть ему в глаза!» — так учил Джареда его отец Логан, король Зеленой Долины. Они — тиранозавры, самые сильные и храбрые из динозавров. Однажды подлый Фанг обманом заманивает Логана в ловушку и убивает, а его наследника выбрасывает в дремучие джунгли. Однако малыша находит Лукас, цератозавр-отшельник, выхаживает и обещает воспитать его настоящим бойцом. Долгие месяцы проходят в изматывающих тренировках и обучении, чтобы Ди смог отомстить за смерть отца и вернуть себе место короля Зеленой Долины. Выпущено: Китай / Beijing Dream Planting Film Co. Продолжительность: 01:20:27 Перевод: Дублированный | Akimbo Production Субтитры: Русские (Forced - хардсаб) Файл Формат: Matroska Качество: WEB-DLRip-AVC | Локализованная версия Видео: 1024x426 at 24.000 fps, x264@L4.1, ~1866 kbps Аудио: AC3, 6 ch, ~384 kbps - | Русский | Формат субтитров: хардсаб ***Рип от: -=DoMiNo=-
[+] M/IGeneral Unique ID : 269449789229051624713769217322756769512 (0xCAB6244A49131F1D64CED8E4148286E8) Complete name : I:Wo.shi.ba.wang.long.2022.DUB.WEB-DLRip.x264.seleZen.mkv Format : Matroska Format version : Version 4 File size : 1.27 GiB Duration : 1 h 20 min Overall bit rate : 2 252 kb/s Frame rate : 24.000 FPS Movie name : Wo.shi.ba.wang.long.2022.DUB.WEB-DLRip.x264.seleZen Encoded date : 2024-05-26 18:03:36 UTC Writing application : mkvmerge v84.0 ('Sleeper') 64-bit Writing library : libebml v1.4.5 + libmatroska v1.7.1 Cover : Yes Attachments : cover.jpg / small_cover.jpg Video ID : 1 Format : AVC Format/Info : Advanced Video Codec Format profile : High@L4.1 Format settings : CABAC / 12 Ref Frames Format settings, CABAC : Yes Format settings, Reference : 12 frames Codec ID : V_MPEG4/ISO/AVC Duration : 1 h 20 min Bit rate : 1 866 kb/s Width : 1 024 pixels Height : 426 pixels Display aspect ratio : 2.40:1 Frame rate mode : Constant Frame rate : 24.000 FPS Color space : YUV Chroma subsampling : 4:2:0 Bit depth : 8 bits Scan type : Progressive Bits/(Pixel*Frame) : 0.178 Stream size : 1.05 GiB (83%) Title : -=DoMiNo=- Writing library : x264 core 164 r3191 -DoMiNo Encoding settings : cabac=1 / ref=12 / deblock=1:-2:-1 / analyse=0x3:0x133 / me=umh / subme=10 / psy=1 / psy_rd=1.00:0.15 / mixed_ref=1 / me_range=32 / chroma_me=1 / trellis=2 / 8x8dct=1 / cqm=0 / deadzone=21,11 / fast_pskip=0 / chroma_qp_offset=-3 / threads=13 / lookahead_threads=3 / sliced_threads=0 / nr=0 / decimate=1 / interlaced=0 / bluray_compat=0 / constrained_intra=0 / bframes=10 / b_pyramid=2 / b_adapt=2 / b_bias=0 / direct=3 / weightb=1 / open_gop=0 / weightp=2 / keyint=240 / keyint_min=24 / scenecut=40 / intra_refresh=0 / rc_lookahead=60 / rc=crf / mbtree=0 / crf=19.0 / qcomp=0.60 / qpmin=0 / qpmax=69 / qpstep=4 / vbv_maxrate=50000 / vbv_bufsize=62500 / crf_max=0.0 / nal_hrd=none / filler=0 / ip_ratio=1.35 / pb_ratio=1.25 / aq=1:0.90 Language : English Default : Yes Forced : No Audio ID : 2 Format : AC-3 Format/Info : Audio Coding 3 Commercial name : Dolby Digital Codec ID : A_AC3 Duration : 1 h 20 min Bit rate mode : Constant Bit rate : 384 kb/s Channel(s) : 6 channels Channel layout : L R C LFE Ls Rs Sampling rate : 48.0 kHz Frame rate : 31.250 FPS (1536 SPF) Compression mode : Lossy Stream size : 221 MiB (17%) Title : Дублированный | Akimbo Production Language : Russian Service kind : Complete Main Default : Yes Forced : No Dialog Normalization : -27 dB compr : -0.28 dB cmixlev : -3.0 dB surmixlev : -3 dB mixlevel : 281 dB roomtyp : 3 ltrtcmixlev : -3.0 dB ltrtsurmixlev : -3.0 dB lorocmixlev : -3.0 dB lorosurmixlev : -4.5 dB dialnorm_Average : -27 dB dialnorm_Minimum : -27 dB dialnorm_Maximum : -27 dB
Релиз: Присоединяйся к: Кликай на баннеры.

Всего файлов в раздаче: 1 
Wo.shi.ba.wang.long.2022.DUB.WEB-DLRip.x264.seleZen.mkv1.27 GB

Похожие раздачи по запросу - Ти-Рекс
2024-05-25 magnet Ти-Рекс. Король динозавров / Wo shi ba wang long / I Am T-Rex (2022) WEB-DL 1080p от ELEKTRI4KA | D | Локализованная версия 3.22 GB ↑ 1 ↓ 0
2024-05-25 magnet Ти-Рекс. Король динозавров / Wo shi ba wang long / I Am T-Rex (2022) WEB-DLRip от ELEKTRI4KA | D | Локализованная версия 1.37 GB ↑ 0 ↓ 0

Кто качает (только для создателя раздачи и модераторов): Локальные пиры отсутствуют

Комментарии


Зарегистрируйтесь чтобы добавить комментарий
Торрент клиент
byTorrent - программа для загрузки торрент-файлов.

Скачать byTorrent.exe (1,5 МБ)

Скачать byTorrent.zip (0,6 МБ)

Поддержи torrent.by
российских рублей
(300 российских рублей это 4$)

Обратная связь rss

End game ©