↑↓torrent.by
Поиск
Логин:  Регистрация
Пароль:

Аполлон 13 / Apollo 13 (1995) HybridRip-AVC от DoMiNo | D | Open Matte

download Скачать торрент-файл   magnet Магнитная ссылка Размер: 2.18 GB Добавлен: 2024-05-27 17:00
Пиры будут получены из сети DHT
Последний сидер был замечен 2024-06-13 20:50
Информация о фильме Название: Аполлон 13 Оригинальное название: Apollo 13 Год выхода: 1995 Жанр: Драма, фильм-катастрофа, история, реальные события Режиссер: Рон Ховард В ролях: Том Хэнкс, Билл Пэкстон, Кевин Бэйкон, Гэри Синиз, Эд Харрис, Кэтлин Куинлен, Мэри Кейт Шеллхардт, Эмили Энн Ллойд, Мико Хьюз, Макс Эллиотт Слэйд, Трэйси Рейнер, Дэвид Эндрюс, Мишель Литтл, Крис Эллис, Джо Спано, Ксандер Беркли, Марк МакКлюр, Бен Марли, Клинт Ховард, Лорен Дин О фильме: Фильм о неудачной лунной миссии «Аполлон-13» — одном из самых драматических моментов освоения космоса. В 1970 «Аполлон-13» должен был стать третьим космическим кораблём, который доставил бы астронавтов на Луну. Однако уже на подлёте к цели на корабле произошла серьёзная авария, которая не только поставила крест на высадке, но и создала угрозу жизни экипажа. Страна: США / Universal Pictures, Imagine Entertainment Продолжительность: 02:19:50 Перевод: Дублированный Файл Кодек: x264 Тип релиза: HybridRip-AVC Контейнер: MKV Видео: High@L4.1, 992x558 (16:9), ~1848 Kb/s, 23.976 fps Аудио: AC3, 6 ch, ~384 kbps Субтитры: Russian (Forced, Full-length), English (Regular, SDH) - SRT
[+] M/IGeneral Complete name : Apollo.13.1995.Open.Matte.HybridRIP-AVC..mkv Format : Matroska Format version : Version 4 / Version 2 File size : 2.18 GiB Duration : 2 h 19 min Overall bit rate : 2 233 kb/s Movie name : Аполлон 13 Encoded date : UTC 2017-12-06 13:15:06 Writing application : mkvmerge v18.0.0 ('Apricity') 64-bit Writing library : libebml v1.3.5 + libmatroska v1.4.8 Cover : Yes Attachments : cover.jpg COMPOSER : Джеймс Хорнер COUNTRY : США DATE : 1995 DIRECTOR : Рон Ховард GENRE : драма, приключения, история IMDB_RATING : 7.60 ITUNEXTC : mpaa|PG|200| ORIGINAL_TITLE : Apollo 13 RATING : 7.718 Video ID : 1 Format : AVC Format/Info : Advanced Video Codec Format profile : High@L4.1 Format settings : CABAC / 11 Ref Frames Format settings, CABAC : Yes Format settings, ReFrames : 11 frames Codec ID : V_MPEG4/ISO/AVC Duration : 2 h 19 min Bit rate : 1 848 kb/s Width : 992 pixels Height : 558 pixels Display aspect ratio : 16:9 Frame rate mode : Constant Frame rate : 23.976 (24000/1001) FPS Color space : YUV Chroma subsampling : 4:2:0 Bit depth : 8 bits Scan type : Progressive Bits/(Pixel*Frame) : 0.139 Stream size : 1.80 GiB (83%) Title : HybridRIP-AVC_BY_-=DoMiNo=-_Open Matte Writing library : x264 core 152 r2851M ba24899 Encoding settings : cabac=1 / ref=11 / deblock=1:-3:-3 / analyse=0x3:0x133 / me=umh / subme=11 / psy=1 / psy_rd=1.00:0.05 / mixed_ref=1 / me_range=48 / chroma_me=1 / trellis=2 / 8x8dct=1 / cqm=0 / deadzone=21,11 / fast_pskip=1 / chroma_qp_offset=-3 / threads=5 / lookahead_threads=1 / sliced_threads=0 / nr=0 / decimate=1 / interlaced=0 / bluray_compat=0 / constrained_intra=0 / bframes=12 / b_pyramid=2 / b_adapt=2 / b_bias=0 / direct=3 / weightb=1 / open_gop=0 / weightp=2 / keyint=240 / keyint_min=24 / scenecut=40 / intra_refresh=0 / rc_lookahead=60 / rc=2pass / mbtree=1 / bitrate=1848 / ratetol=1.0 / qcomp=0.70 / qpmin=0 / qpmax=69 / qpstep=4 / cplxblur=20.0 / qblur=0.5 / ip_ratio=1.40 / aq=1:1.00 Language : English Default : Yes Forced : No Color range : Limited Color primaries : BT.709 Transfer characteristics : BT.709 Matrix coefficients : BT.709 Audio ID : 2 Format : AC-3 Format/Info : Audio Coding 3 Codec ID : A_AC3 Duration : 2 h 19 min Bit rate mode : Constant Bit rate : 384 kb/s Channel(s) : 6 channels Channel positions : Front: L C R, Side: L R, LFE Sampling rate : 48.0 kHz Frame rate : 31.250 FPS (1536 SPF) Bit depth : 16 bits Compression mode : Lossy Stream size : 384 MiB (17%) Title : RUS_DUB_AC3_6ch Service kind : Complete Main Default : Yes Forced : No Text #1 ID : 3 Format : UTF-8 Codec ID : S_TEXT/UTF8 Codec ID/Info : UTF-8 Plain Text Duration : 2 h 5 min Bit rate : 2 b/s Count of elements : 50 Stream size : 2.29 KiB (0%) Title : Forced (rus) Language : Russian Default : Yes Forced : No Text #2 ID : 4 Format : UTF-8 Codec ID : S_TEXT/UTF8 Codec ID/Info : UTF-8 Plain Text Duration : 2 h 13 min Bit rate : 134 b/s Count of elements : 1902 Stream size : 132 KiB (0%) Title : rus Language : Russian Default : No Forced : No Text #3 ID : 5 Format : UTF-8 Codec ID : S_TEXT/UTF8 Codec ID/Info : UTF-8 Plain Text Duration : 2 h 13 min Bit rate : 78 b/s Count of elements : 1814 Stream size : 76.7 KiB (0%) Title : eng Language : English Default : No Forced : No Text #4 ID : 6 Format : UTF-8 Codec ID : S_TEXT/UTF8 Codec ID/Info : UTF-8 Plain Text Duration : 2 h 13 min Bit rate : 82 b/s Count of elements : 1841 Stream size : 80.5 KiB (0%) Title : SDH (eng) Language : English Default : No Forced : No Menu 00:00:00.000 : :Chapter 1 00:09:38.745 : :Chapter 2 00:19:49.021 : :Chapter 3 00:34:21.560 : :Chapter 4 00:45:15.045 : :Chapter 5 00:49:37.808 : :Chapter 6 01:02:00.049 : :Chapter 7 01:05:52.982 : :Chapter 8 01:10:05.033 : :Chapter 9 01:15:08.637 : :Chapter 10 01:17:07.790 : :Chapter 11 01:19:41.277 : :Chapter 12 01:35:12.207 : :Chapter 13 01:39:10.778 : :Chapter 14 01:48:21.162 : :Chapter 15 01:56:42.028 : :Chapter 16 01:58:49.623 : :Chapter 17 02:05:17.677 : :Chapter 18 02:09:06.906 : :Chapter 19 02:14:05.871 : :Chapter 20
[+] Скриншоты

Всего файлов в раздаче: 1 
Apollo.13.1995.Open.Matte.HybridRIP-AVC.[-=DoMiNo=-].mkv2.18 GB

Похожие раздачи по запросу - Аполлон
2024-05-28 magnet Аполлон 13 / Apollo 13 (1995) BDRip-AVC от New-Team | D 2.18 GB ↑ 0 ↓ 0

Комментарии


Зарегистрируйтесь чтобы добавить комментарий
Торрент клиент
byTorrent - программа для загрузки торрент-файлов.

Скачать byTorrent.exe (1,5 МБ)

Скачать byTorrent.zip (0,6 МБ)

Поддержи torrent.by
российских рублей
(300 российских рублей это 4$)

Обратная связь rss

End game ©