↑↓torrent.by
Поиск
Логин:  Регистрация
Пароль:

Миллионер на три дня / Three Day Millionaire (2022) BDRip 1080p от MegaPeer | D

download Скачать торрент-файл   magnet Магнитная ссылка Размер: 7.76 GB Добавлен: 2024-05-28 05:00
Пиры будут получены из сети DHT
Последний сидер был замечен сегодня в 19:15
«Оттянись напоследок» Информация Название: Миллионер на три дня Оригинальное название: Three Day Millionaire Год выхода: 2022 Жанр: Комедия Режиссер: Джек Спринг В ролях: Колм Мини, Джеймс Берроуз, Джонас Армстронг, Робби Ги, Грэйс Лонг, Мелисса Батчелор, Рори Вилтон, Эндрю Ридман, Адриан Худ, Катрин Адамс Описание: После недель, проведенных в море, трое работников траулера возвращаются в родной городок. На суше выясняется, что всех трудяг кинули на деньги, а работы больше не будет. Друзья решают, что их долг — спасти компанию, своих товарищей и, что не менее важно, сохранить свою беззаботную жизнь. Они задумывают величайшее ограбление в истории. Страна: Великобритания Студия: Britflicks Productions, Shush Films, Trigger Films Продолжительность: 01:36:19 Перевод: Профессиональный (полное дублирование) | СиПиАй Филмз / CPI Films | *** В дубляже (WEB-DL) отсутствуют несколько сцен по сравнению с Blu-ray, диалоги присутствуют только в двух сценах, переведено форсированными субтитрами. Файл Качество: BDRip 1080p Исходник: Three.Day.Millionaire.2022.DUAL.COMPLETE.BLURAY-iFPD Формат: MKV Кодек: MPEG-4 AVC Видео: 1920x804 (2.40:1), 23.976 fps, MPEG-4 AVC ~ 10.3 Mbps avg, 0.277 bit/pixel Аудио: AC3, 48 kHz, 6 ch, ~640.00 kbps avg | русский | DUB Аудио: AC3, 48 kHz, 6 ch, ~640.00 kbps avg | английский | Субтитры: Русские (Forced, Full), Английские (Full)
[+] Инфо-файлОбщее Уникальный идентификатор : 207607849750044755292631088370899182613 (0x9C2FD1448E92F442B1A662CDB5436415) Полное имя : Three.Day.Millionaire.2022.1080p.BluRay.DD.5.1.x264-MegaPeer.mkv Формат : Matroska Версия формата : Version 4 Размер файла : 7,76 Гбайт Продолжительность : 1 ч. 36 мин. Общий битрейт : 11,5 Мбит/сек Частота кадров : 23,976 кадра/сек Название фильма : Миллионер на три дня / Three Day Millionaire (2022) от stillet@MegaPeer Дата кодирования : 2024-05-27 16:01:20 UTC Программа кодирования : mkvmerge v15.0.0 ('Duel with the Devil') 64-bit Библиотека кодирования : libebml v1.3.5 + libmatroska v1.4.5 Обложка : Yes Attachments : cover.jpg Видео Идентификатор : 1 Формат : AVC Формат/Информация : Advanced Video Codec Профиль формата : High@L4.1 Настройки формата : CABAC / 5 Ref Frames Параметр CABAC формата : Да Параметр RefFrames формата : 5 кадров Идентификатор кодека : V_MPEG4/ISO/AVC Продолжительность : 1 ч. 36 мин. Битрейт : 10,3 Мбит/сек Ширина : 1 920 пикселей Высота : 804 пикселя Соотношение сторон дисплея : 2,39:1 Режим частоты кадров : Постоянный Частота кадров : 23,976 (24000/1001) кадра/сек Цветовое пространство : YUV Цветовая субдискретизация : 4:2:0 Битовая глубина : 8 бит Тип развёртки : Прогрессивная Бит/(Пиксели*Кадры) : 0.277 Размер потока : 6,90 Гбайт (89%) Библиотека кодирования : x264 core 164 r3156+57M stillet t_mod_New Параметры библиотеки кодирования : cabac=1 / ref=5 / deblock=1:-3:-3 / analyse=0x3:0x113 / me=umh / subme=10 / psy=1 / fade_compensate=0.00 / psy_rd=1.03:0.02 / mixed_ref=1 / me_range=32 / chroma_me=1 / trellis=2 / 8x8dct=1 / cqm=0 / deadzone=21,11 / fast_pskip=0 / chroma_qp_offset=-3 / threads=12 / lookahead_threads=3 / sliced_threads=0 / nr=0 / decimate=0 / interlaced=0 / bluray_compat=0 / constrained_intra=0 / fgo=0 / bframes=10 / b_pyramid=2 / b_adapt=2 / b_bias=0 / direct=3 / weightb=1 / open_gop=0 / weightp=2 / keyint=240 / keyint_min=24 / scenecut=40 / intra_refresh=0 / rc_lookahead=40 / rc=2pass / mbtree=0 / bitrate=10267 / ratetol=1.0 / qcomp=0.60 / qpmin=0:0:0 / qpmax=69:69:69 / qpstep=4 / cplxblur=20.0 / qblur=0.5 / vbv_maxrate=50000 / vbv_bufsize=62500 / nal_hrd=none / filler=0 / ip_ratio=1.40 / pb_ratio=1.30 / aq=1:1.10 / aq-sensitivity=10.00 / aq-factor=1.00:1.00:1.00 / aq2=0 / aq3=0 Язык : Английский По умолчанию : Да Принудительно : Нет Аудио #1 Идентификатор : 2 Формат : AC-3 Формат/Информация : Audio Coding 3 Коммерческое название : Dolby Digital Идентификатор кодека : A_AC3 Продолжительность : 1 ч. 36 мин. Вид битрейта : Постоянный Битрейт : 640 Кбит/сек Канал(-ы) : 6 каналов Расположение каналов : L R C LFE Ls Rs Частота дискретизации : 48,0 КГц Частота кадров : 31,250 кадров/сек (1536 SPF) Метод сжатия : С потерями Размер потока : 441 Мбайт (6%) Заголовок : DUB | СиПиАй Филмз / CPI Films Язык : Русский Вид сервиса : Complete Main По умолчанию : Да Принудительно : Да AC3_metadata cmixlev : -3.0 dB surmixlev : -3 dB Аудио #2 Идентификатор : 3 Формат : AC-3 Формат/Информация : Audio Coding 3 Коммерческое название : Dolby Digital Идентификатор кодека : A_AC3 Продолжительность : 1 ч. 36 мин. Вид битрейта : Постоянный Битрейт : 640 Кбит/сек Канал(-ы) : 6 каналов Расположение каналов : L R C LFE Ls Rs Частота дискретизации : 48,0 КГц Частота кадров : 31,250 кадров/сек (1536 SPF) Метод сжатия : С потерями Размер потока : 441 Мбайт (6%) Язык : Английский Вид сервиса : Complete Main По умолчанию : Нет Принудительно : Нет AC3_metadata cmixlev : -3.0 dB surmixlev : -3 dB Текст #1 Идентификатор : 4 Формат : UTF-8 Идентификатор кодека : S_TEXT/UTF8 Идентификатор кодека/Информация : UTF-8 Plain Text Продолжительность : 19 мин. 41 с. Битрейт : 3 бит/сек Частота кадров : 0,005 кадр/сек Число элементов : 6 Размер потока : 539 байт (0%) Заголовок : Forced Язык : Русский По умолчанию : Да Принудительно : Да Текст #2 Идентификатор : 5 Формат : UTF-8 Идентификатор кодека : S_TEXT/UTF8 Идентификатор кодека/Информация : UTF-8 Plain Text Продолжительность : 1 ч. 34 мин. Битрейт : 99 бит/сек Частота кадров : 0,275 кадр/сек Число элементов : 1554 Размер потока : 68,2 КиБ (0%) Заголовок : Full Язык : Русский По умолчанию : Нет Принудительно : Нет Текст #3 Идентификатор : 6 Формат : UTF-8 Идентификатор кодека : S_TEXT/UTF8 Идентификатор кодека/Информация : UTF-8 Plain Text Продолжительность : 1 ч. 34 мин. Битрейт : 74 бит/сек Частота кадров : 0,241 кадр/сек Число элементов : 1364 Размер потока : 51,1 КиБ (0%) Заголовок : Full Язык : Английский По умолчанию : Нет Принудительно : Нет Меню 00:00:00.000 : Chapter 01 00:13:48.828 : Chapter 02 00:27:24.643 : Chapter 03 00:40:42.440 : Chapter 04 00:54:30.267 : Chapter 05 01:07:36.052 : Chapter 06 01:19:44.780 : Chapter 07 01:32:05.520 : Chapter 08
Релиз:

Всего файлов в раздаче: 1 
Three.Day.Millionaire.2022.1080p.BluRay.DD.5.1.x264-MegaPeer.mkv7.76 GB

Похожие раздачи по запросу - Миллионер
2024-05-28 magnet Миллионер на три дня / Three Day Millionaire (2022) BDRip от MegaPeer | D 1.46 GB ↑ 0 ↓ 0
2024-05-28 magnet Миллионер на три дня / Three Day Millionaire (2022) WEB-DLRip 720p от DoMiNo & селезень | D | Локализованная версия 1.72 GB ↑ 0 ↓ 0
2024-05-28 magnet Миллионер на три дня / Three Day Millionaire (2022) BDRip-AVC от New-Team | D 2.15 GB ↑ 0 ↓ 0
2024-01-16 magnet Красавица и миллионер / Beauty and the Billionaire (2022) WEB-DL 1080p | D 3.44 GB ↑ 0 ↓ 0

Комментарии


Зарегистрируйтесь чтобы добавить комментарий
Торрент клиент
byTorrent - программа для загрузки торрент-файлов.

Скачать byTorrent.exe (1,5 МБ)

Скачать byTorrent.zip (0,6 МБ)

Поддержи torrent.by
российских рублей
(300 российских рублей это 4$)

Обратная связь rss

End game ©