↑↓torrent.by
Поиск
Логин:  Регистрация
Пароль:

Претенденты / Суперники / Challengers (2024) WEB-DL 1080p | P | UKR

download Скачать торрент-файл   magnet Магнитная ссылка Размер: 10.60 GB Добавлен: 2024-05-28 05:00
Пиры будут получены из сети DHT
Последний сидер был замечен 2024-05-28 05:00
Информация о фильме Название: Претенденты Оригинальное название: Challengers Год выхода: 2024 Жанр: драма, спорт, мелодрама Режиссер: Лука Гуаданьино В ролях: Майк Фейст, Джош О’Коннор, Зендея, Дарнелл Эпплинг, Bryan Doo, Shane T Harris, Нада Деспотович, Joan Mcshane, Крис Фаулер, Мэри Джо Фернандес О фильме: 2019 год. Теннисист Арт Дональдсон переживает не лучший период в карьере, поэтому, чтобы поднять его моральный дух и укрепить веру в себя, его жена и по совместительству тренер Таши предлагает принять участие в турнире серии ATP Challenger. В прошлом она сама была многообещающей спортсменкой, но не смогла восстановиться после травмы колена, и теперь все силы вкладывает в мужа. В финале Арт выходит на бывшего парня Таши и некогда своего лучшего друга Патрика Цвейга, для которого победа тоже становится делом принципа. Страна: США, Италия Продолжительность: 02:11:38 Перевод: Профессиональный (многоголосый закадровый) | DniproFilm (Украинский) Файл Кодек: x.264 Качество: WEB-DL 1080p Видео: AVC, 1920x1040 (1.85:1), 23.976 fps, 9487 kb/s Аудио 1: E-AC3, 48.0 kHz, 6 ch, 640 kb/s | UKR Аудио 2: AC3, 48.0 kHz, 6 ch, 640 kb/s | UKR Аудио 3: E-AC3 JOC, 48.0 kHz, 6 ch, 768 kb/s | ENG Субтитры: украинские (forced, full), английские (full, SDH)
[+] MIGeneral Unique ID : 192384463263017638177061866415219636505 (0x90BBE65D7124611AB602B0889E957919) Complete name : Challengers.(2024).WEB-DL.1080p.Ukr.Eng.mkv Format : Matroska Format version : Version 4 File size : 10.6 GiB Duration : 2 h 11 min Overall bit rate : 11.5 Mb/s Encoded date : UTC 2024-05-27 15:24:33 Writing application : mkvmerge v8.3.0 ('Over the Horizon') 64bit Writing library : libebml v1.3.1 + libmatroska v1.4.2 Video ID : 1 Format : AVC Format/Info : Advanced Video Codec Format profile : High@L4 Format settings : CABAC / 4 Ref Frames Format settings, CABAC : Yes Format settings, Reference frames : 4 frames Codec ID : V_MPEG4/ISO/AVC Duration : 2 h 11 min Bit rate mode : Constant Bit rate : 9 487 kb/s Nominal bit rate : 10 000 kb/s Width : 1 920 pixels Height : 1 040 pixels Display aspect ratio : 1.85:1 Original display aspect ratio : 1.85:1 Frame rate mode : Constant Frame rate : 23.976 (24000/1001) FPS Color space : YUV Chroma subsampling : 4:2:0 Bit depth : 8 bits Scan type : Progressive Bits/(Pixel*Frame) : 0.198 Stream size : 8.72 GiB (82%) Default : Yes Forced : No Color range : Limited Color primaries : BT.709 Transfer characteristics : BT.709 Matrix coefficients : BT.709 Audio #1 ID : 2 Format : E-AC-3 Format/Info : Enhanced AC-3 Commercial name : Dolby Digital Plus Codec ID : A_EAC3 Duration : 2 h 11 min Bit rate mode : Constant Bit rate : 640 kb/s Channel(s) : 6 channels Channel layout : L R C LFE Ls Rs Sampling rate : 48.0 kHz Frame rate : 31.250 FPS (1536 SPF) Compression mode : Lossy Stream size : 600 MiB (6%) Title : MVO | DniproFilm Language : Ukrainian Service kind : Complete Main Default : Yes Forced : No Audio #2 ID : 3 Format : AC-3 Format/Info : Audio Coding 3 Commercial name : Dolby Digital Codec ID : A_AC3 Duration : 2 h 11 min Bit rate mode : Constant Bit rate : 640 kb/s Channel(s) : 6 channels Channel layout : L R C LFE Ls Rs Sampling rate : 48.0 kHz Frame rate : 31.250 FPS (1536 SPF) Compression mode : Lossy Stream size : 600 MiB (6%) Title : MVO | DniproFilm Language : Ukrainian Service kind : Complete Main Default : No Forced : No Audio #3 ID : 4 Format : E-AC-3 JOC Format/Info : Enhanced AC-3 with Joint Object Coding Commercial name : Dolby Digital Plus with Dolby Atmos Codec ID : A_EAC3 Duration : 2 h 11 min Bit rate mode : Constant Bit rate : 768 kb/s Channel(s) : 6 channels Channel layout : L R C LFE Ls Rs Sampling rate : 48.0 kHz Frame rate : 31.250 FPS (1536 SPF) Compression mode : Lossy Delay relative to video : 11 ms Stream size : 721 MiB (7%) Title : Original Language : English Service kind : Complete Main Default : No Forced : No Complexity index : 16 Number of dynamic objects : 15 Bed channel count : 1 channel Bed channel configuration : LFE Text #1 ID : 5 Format : UTF-8 Codec ID : S_TEXT/UTF8 Codec ID/Info : UTF-8 Plain Text Duration : 2 h 10 min Bit rate : 3 b/s Count of elements : 63 Stream size : 2.89 KiB (0%) Title : Forced Language : Ukrainian Default : Yes Forced : No Text #2 ID : 6 Format : UTF-8 Codec ID : S_TEXT/UTF8 Codec ID/Info : UTF-8 Plain Text Duration : 2 h 10 min Bit rate : 74 b/s Count of elements : 1592 Stream size : 71.1 KiB (0%) Title : Full Language : Ukrainian Default : No Forced : No Text #3 ID : 7 Format : UTF-8 Codec ID : S_TEXT/UTF8 Codec ID/Info : UTF-8 Plain Text Duration : 2 h 5 min Bit rate : 50 b/s Count of elements : 1520 Stream size : 46.2 KiB (0%) Title : Full Language : English Default : No Forced : No Text #4 ID : 8 Format : UTF-8 Codec ID : S_TEXT/UTF8 Codec ID/Info : UTF-8 Plain Text Duration : 2 h 7 min Bit rate : 60 b/s Count of elements : 1815 Stream size : 56.7 KiB (0%) Title : SDH Language : English Default : No Forced : No
[+] Скриншоты

Всего файлов в раздаче: 1 
Challengers.(2024).WEB-DL.1080p.Ukr.Eng.mkv10.60 GB

Похожие раздачи по запросу - Претенденты
2024-05-30 magnet Претенденты / Суперники / Challengers (2024) WEB-DL-HEVC 2160p | 4K | HDR | Dolby Vision Profile 8 | P | UKR 24.04 GB ↑ 0 ↓ 0
2024-05-28 magnet Претенденты / Суперники / Challengers (2024) WEB-DL-HEVC 2160p | 4K | SDR | P | UKR 14.78 GB ↑ 0 ↓ 0
2024-05-21 magnet Претенденты / Challengers (2024) WEB-DLRip от New-Team | P | HDRezka Studio 1.47 GB ↑ 0 ↓ 0
2024-05-21 magnet Претенденты / Challengers (2024) WEB-DLRip-AVC | P | HDRezka Studio 2.44 GB ↑ 0 ↓ 0
2024-05-21 magnet Претенденты / Challengers (2024) WEB-DL 1080p от New-Team | P | HDRezka Studio 9.60 GB ↑ 0 ↓ 0
2024-05-21 magnet Претенденты / Challengers (2024) WEB-DL 720p | Sub 4.21 GB ↑ 0 ↓ 0

Комментарии


Зарегистрируйтесь чтобы добавить комментарий
Торрент клиент
byTorrent - программа для загрузки торрент-файлов.

Скачать byTorrent.exe (1,5 МБ)

Скачать byTorrent.zip (0,6 МБ)

Поддержи torrent.by
российских рублей
(300 российских рублей это 4$)

Обратная связь rss

End game ©