↑↓torrent.by
Поиск
Логин:  Регистрация
Пароль:

Киллер. Побег из тюрьмы / Volkov Origin (2022) WEB-DLRip 720p от DoMiNo & селезень | D | MOYGOLOS

download Скачать торрент-файл   magnet Магнитная ссылка Размер: 1.55 GB Добавлен: 2024-05-28 05:00
Пиры будут получены из сети DHT
Последний сидер был замечен вчера в 16:21
Информация о фильме Название: Киллер. Побег из тюрьмы Оригинальное название: Volkov Origin Год выхода: 2022 Жанр: триллер Режиссер: Джордж Диббл В ролях: Уэс Ли, Чарльз Д. Кларк, Кэйден Диббл, Уэс Джонсон, Джейн Чуа, Джина Джун, Ричард Зигельман, Сюзанн Р. Нефф, Майкл Дж. Паттерсон, Элиза Келли, Джемма Макилхенни, Кевин Тан, Джон Джуди, Леса Коул, Энди Винеберг О фильме: Психолог тюрьмы Хортон-Хаус Анджела Перкинс пытается разобраться в деле убийцы Андре Волкова. Он считается криминальным королем не только в тюрьме, но и далеко за ее пределами. Анджеле приходится погрузиться в самые темные закоулки души преступника, где таятся страшные вещи. Андре, понимая сомнения психолога, начинает вести с ней свою игру. Волкову во что бы то ни стало нужно выбраться из тюрьмы, ведь у него остались незаконченные дела. Преступник живет мыслью о мести, и она будет ужасна, если ему все-таки удастся добиться освобождения. Получится ли у психолога найти грань между правдой и ложью, имея дело с таким опасным оппонентом? И суждено ли свершиться жестокой мести Волкова? Выпущено: США / Elysium Productions Продолжительность: 01:27:05 Перевод: Дублированный | MOYGOLOS Субтитры: Русские (Forced- хардсаб) Файл Формат: Matroska Качество: WEB-DLRip 720p Видео: 1280x544 at 24.000 fps, x264@L4.1, ~2296 kbps Аудио: AC3, 6 ch, ~256 kbps - | Русский | Формат субтитров: Хардсаб ***Рип от: -=DoMiNo=-
[+] M/IGeneral Unique ID : 11317401693140525136940195223152475588 (0x883A6FBE910A6F1E86020A1C6C5BDC4) Complete name : I:Volkov.Origin.DUB.WEB-DLRip.720p.x264.seleZen.mkv Format : Matroska Format version : Version 4 File size : 1.55 GiB Duration : 1 h 27 min Overall bit rate : 2 554 kb/s Frame rate : 24.000 FPS Movie name : Volkov.Origin.DUB.WEB-DLRip.720p.x264.seleZen Encoded date : 2024-05-27 16:05:31 UTC Writing application : mkvmerge v84.0 ('Sleeper') 64-bit Writing library : libebml v1.4.5 + libmatroska v1.7.1 Cover : Yes Attachments : cover.jpg / small_cover.jpg Video ID : 1 Format : AVC Format/Info : Advanced Video Codec Format profile : High@L4.1 Format settings : CABAC / 5 Ref Frames Format settings, CABAC : Yes Format settings, Reference : 5 frames Codec ID : V_MPEG4/ISO/AVC Duration : 1 h 27 min Bit rate : 2 296 kb/s Width : 1 280 pixels Height : 544 pixels Display aspect ratio : 2.35:1 Frame rate mode : Constant Frame rate : 24.000 FPS Color space : YUV Chroma subsampling : 4:2:0 Bit depth : 8 bits Scan type : Progressive Bits/(Pixel*Frame) : 0.137 Stream size : 1.40 GiB (90%) Title : -=DoMiNo=- Writing library : x264 core 164 r3191 -DoMiNo Encoding settings : cabac=1 / ref=5 / deblock=1:-2:-1 / analyse=0x3:0x133 / me=umh / subme=10 / psy=1 / psy_rd=1.00:0.15 / mixed_ref=1 / me_range=32 / chroma_me=1 / trellis=2 / 8x8dct=1 / cqm=0 / deadzone=21,11 / fast_pskip=0 / chroma_qp_offset=-3 / threads=17 / lookahead_threads=4 / sliced_threads=0 / nr=0 / decimate=1 / interlaced=0 / bluray_compat=0 / constrained_intra=0 / bframes=10 / b_pyramid=2 / b_adapt=2 / b_bias=0 / direct=3 / weightb=1 / open_gop=0 / weightp=2 / keyint=240 / keyint_min=24 / scenecut=40 / intra_refresh=0 / rc_lookahead=60 / rc=crf / mbtree=0 / crf=17.8 / qcomp=0.60 / qpmin=0 / qpmax=69 / qpstep=4 / vbv_maxrate=50000 / vbv_bufsize=62500 / crf_max=0.0 / nal_hrd=none / filler=0 / ip_ratio=1.35 / pb_ratio=1.25 / aq=1:0.90 Language : English Default : Yes Forced : No Audio ID : 2 Format : AC-3 Format/Info : Audio Coding 3 Commercial name : Dolby Digital Codec ID : A_AC3 Duration : 1 h 27 min Bit rate mode : Constant Bit rate : 256 kb/s Channel(s) : 6 channels Channel layout : L R C LFE Ls Rs Sampling rate : 48.0 kHz Frame rate : 31.250 FPS (1536 SPF) Compression mode : Lossy Stream size : 159 MiB (10%) Title : Дублированный | MOYGOLOS Language : Russian Service kind : Complete Main Default : Yes Forced : No Dialog Normalization : -27 dB compr : -0.28 dB cmixlev : -3.0 dB surmixlev : -3 dB mixlevel : 281 dB roomtyp : 3 ltrtcmixlev : -3.0 dB ltrtsurmixlev : -3.0 dB lorocmixlev : -3.0 dB lorosurmixlev : -4.5 dB dialnorm_Average : -27 dB dialnorm_Minimum : -27 dB dialnorm_Maximum : -27 dB Menu 00:00:00.000 : en:Chapter 01 00:05:50.000 : en:Chapter 02 00:11:40.000 : en:Chapter 03 00:17:30.000 : en:Chapter 04 00:23:20.000 : en:Chapter 05 00:29:10.000 : en:Chapter 06 00:35:00.000 : en:Chapter 07 00:40:50.000 : en:Chapter 08 00:46:40.000 : en:Chapter 09 00:52:30.000 : en:Chapter 10 00:58:20.000 : en:Chapter 11 01:04:10.000 : en:Chapter 12 01:10:00.000 : en:Chapter 13 01:15:50.000 : en:Chapter 14 01:21:40.000 : en:Chapter 15
Релиз: Присоединяйся к: Кликай на баннеры.

Всего файлов в раздаче: 1 
Volkov.Origin.DUB.WEB-DLRip.720p.x264.seleZen.mkv1.55 GB

Похожие раздачи по запросу - Киллер
Сегодня magnet Я не киллер / Найманий убивця / Hit Man (2023) WEB-DL-HEVC 2160p | 4K | HDR | Dolby Vision Profile 8 | P | UKR 15.61 GB ↑ 0 ↓ 7
Вчера magnet Я не киллер / Найманий убивця / Hit Man (2023) WEB-DL-HEVC 2160p | 4K | SDR | P | UKR 12.62 GB ↑ 0 ↓ 7
Вчера magnet Я не киллер / Найманий убивця / Hit Man (2023) WEB-DL 1080p | P | UKR 7.87 GB ↑ 1 ↓ 5
2024-06-09 magnet Я не киллер / Hit Man (2023) WEB-DL 1080p | D 7.37 GB ↑ 1 ↓ 31
2024-06-05 magnet Моя жена – киллер / Рольові ігри / Role Play (2023) WEB-DL 1080p | D | UKR 5.71 GB ↑ 0 ↓ 3
2024-06-02 magnet Я не киллер / Hit Man (2023) WEB-DLRip 720p от селезень | D | Локализованная версия 2.12 GB ↑ 1 ↓ 2
2024-06-02 magnet Я не киллер / Hit Man (2023) WEB-DLRip от MegaPeer | D | Локализованная версия 1.46 GB ↑ 3 ↓ 4

Кто качает (только для создателя раздачи и модераторов): Локальные пиры отсутствуют

Комментарии


Зарегистрируйтесь чтобы добавить комментарий
Торрент клиент
byTorrent - программа для загрузки торрент-файлов.

Скачать byTorrent.exe (1,5 МБ)

Скачать byTorrent.zip (0,6 МБ)

Поддержи torrent.by
российских рублей
(300 российских рублей это 4$)

Обратная связь rss

End game ©