↑↓torrent.by
Поиск
Логин:  Регистрация
Пароль:

Падение империи / Гражданская война / Civil War (2024) UHD WEB-DL 2160p | 4K | HDR | Dolby Vision Profile 8 | D, P2

download Скачать торрент-файл   magnet Магнитная ссылка Размер: 19.05 GB Раздают: 2 Качают: 3 Добавлен: 2024-05-28 05:00
Пиры будут получены из сети DHT
Последний сидер был замечен сегодня в 11:31
Название: Падение империи / Гражданская война Оригинальное название: Civil War Год выхода: 2024 Производство: США, Великобритания / DNA Films, IPR.VC, A24 Жанр: Боевик, драма Перевод: Дублированный (неофициальный), профессиональный двухголосый Продолжительность: 01:48:46 Режиссёр: Алекс Гарленд / Alex Garland В ролях: Кирстен Данст, Вагнер Моура, Кейли Спейни, Стивен Хендерсон, Соноя Мидзуно, Ник Офферман, Джефферсон Уайт, Хуани Фелиз, Нельсон Ли, Эдмунд Донован Описание: Национальная гвардия Калифорнии и Техаса при поддержке боевой техники и авиации штурмуют столицу. Белый дом вот-вот падет. Группа журналистов пытается добраться до пылающего Вашингтона, чтобы взять последнее интервью у президента некогда Соединенных Штатов Америки. Но в стране, где царит хаос, нет ничего дороже литра бензина и ничего дешевле, чем человеческая жизнь. Формат: MKV Качество: WEB-DL 2160p Видео: MPEG-H HEVC / ~23.5 Mbps / 3836x2072 / 23.976 fps / 0.123 бит/(Пиксели*Кадры) Аудио 1: AC-3, 48 kHz, 2 ch, 192 kbps | Русский, DUB | HDRezka Studio Аудио 2: AC-3, 48 kHz, 6 ch, 640 kbps | Русский, DVO | ViruseProject Аудио 3: Е-AC3+Atmos, 48 kHz, 6 ch, 768 kbps | Original Субтитры: Русские (Forced, Full), английские (Full, SDH)
[+] MediainfoОбщее Уникальный идентификатор : 165439715174226024414676365531326975775 (0x7C7687B78CAEB5E45DDFE3D825C80F1F) Полное имя : F:Civil.War.2024.x265.WEB-DL.2160p.HDR-DV.mkv Формат : Matroska Версия формата : Version 4 Размер файла : 19,1 Гбайт Продолжительность : 1 ч. 48 м. Общий поток : 25,1 Мбит/сек Дата кодирования : UTC 2024-05-27 07:34:44 Программа кодирования : mkvmerge v83.0 ('Circle Of Friends') 64-bit Библиотека кодирования : libebml v1.4.5 + libmatroska v1.7.1 Видео Идентификатор : 1 Формат : HEVC Формат/Информация : High Efficiency Video Coding Профиль формата : Main 10@L5@High HDR format : Dolby Vision, Version 1.0, dvhe.08.06, BL+RPU, HDR10 compatible / SMPTE ST 2094 App 4, Version 1, HDR10+ Profile B compatible Идентификатор кодека : V_MPEGH/ISO/HEVC Продолжительность : 1 ч. 48 м. Битрейт : 23,5 Мбит/сек Ширина : 3 836 пикселей Высота : 2 072 пикселя Соотношение сторон : 1,85:1 Режим частоты кадров : Постоянный Частота кадров : 23,976 (24000/1001) кадра/сек Цветовое пространство : YUV Субдискретизация насыщенности : 4:2:0 (Type 2) Битовая глубина : 10 бит Бит/(Пиксели*Кадры) : 0.123 Размер потока : 17,8 Гбайт (94%) Язык : English Default : Да Forced : Да Цветовой диапазон : Limited Основные цвета : BT.2020 Характеристики трансфера : PQ Коэффициенты матрицы : BT.2020 non-constant Mastering display color primaries : Display P3 Mastering display luminance : min: 0.0050 cd/m2, max: 1000 cd/m2 Maximum Content Light Level : 1854 cd/m2 Maximum Frame-Average Light Level : 509 cd/m2 Аудио #1 Идентификатор : 2 Формат : AC-3 Формат/Информация : Audio Coding 3 Коммерческое название : Dolby Digital Идентификатор кодека : A_AC3 Продолжительность : 1 ч. 48 м. Вид битрейта : Постоянный Битрейт : 192 Кбит/сек Каналы : 2 канала Channel layout : L R Частота : 48,0 КГц Частота кадров : 31,250 кадров/сек (1536 SPF) Метод сжатия : С потерями Размер потока : 149 Мбайт (1%) Заголовок : DUB (HDRezka Studio) Язык : Russian Service kind : Complete Main Default : Да Forced : Да Аудио #2 Идентификатор : 3 Формат : AC-3 Формат/Информация : Audio Coding 3 Коммерческое название : Dolby Digital Идентификатор кодека : A_AC3 Продолжительность : 1 ч. 48 м. Вид битрейта : Постоянный Битрейт : 640 Кбит/сек Каналы : 6 каналов Channel layout : L R C LFE Ls Rs Частота : 48,0 КГц Частота кадров : 31,250 кадров/сек (1536 SPF) Метод сжатия : С потерями Размер потока : 498 Мбайт (3%) Заголовок : DVO (ViruseProject 18+) Язык : Russian Service kind : Complete Main Default : Нет Forced : Нет Аудио #3 Идентификатор : 4 Формат : E-AC-3 JOC Формат/Информация : Enhanced AC-3 with Joint Object Coding Коммерческое название : Dolby Digital Plus with Dolby Atmos Идентификатор кодека : A_EAC3 Продолжительность : 1 ч. 48 м. Вид битрейта : Постоянный Битрейт : 768 Кбит/сек Каналы : 6 каналов Channel layout : L R C LFE Ls Rs Частота : 48,0 КГц Частота кадров : 31,250 кадров/сек (1536 SPF) Метод сжатия : С потерями Размер потока : 597 Мбайт (3%) Язык : English Service kind : Complete Main Default : Нет Forced : Нет Complexity index : 16 Number of dynamic objects : 15 Bed channel count : 1 канал Bed channel configuration : LFE Текст #1 Идентификатор : 5 Формат : UTF-8 Идентификатор кодека : S_TEXT/UTF8 Идентификатор кодека/Информация : UTF-8 Plain Text Продолжительность : 1 ч. 43 м. Битрейт : 1 бит/сек Частота кадров : 0,003 кадр/сек Count of elements : 16 Размер потока : 846 байт (0%) Заголовок : Forced Язык : Russian Default : Да Forced : Да Текст #2 Идентификатор : 6 Формат : UTF-8 Идентификатор кодека : S_TEXT/UTF8 Идентификатор кодека/Информация : UTF-8 Plain Text Продолжительность : 1 ч. 43 м. Битрейт : 58 бит/сек Частота кадров : 0,161 кадр/сек Count of elements : 1000 Размер потока : 44,1 Кбайт (0%) Заголовок : Full (Cool Story Blog 18+) Язык : Russian Default : Нет Forced : Нет Текст #3 Идентификатор : 7 Формат : UTF-8 Идентификатор кодека : S_TEXT/UTF8 Идентификатор кодека/Информация : UTF-8 Plain Text Продолжительность : 1 ч. 39 м. Битрейт : 56 бит/сек Частота кадров : 0,164 кадр/сек Count of elements : 985 Размер потока : 41,3 Кбайт (0%) Заголовок : Full (Un Chat Andalou 18+) Язык : Russian Default : Нет Forced : Нет Текст #4 Идентификатор : 8 Формат : UTF-8 Идентификатор кодека : S_TEXT/UTF8 Идентификатор кодека/Информация : UTF-8 Plain Text Продолжительность : 1 ч. 39 м. Битрейт : 34 бит/сек Частота кадров : 0,165 кадр/сек Count of elements : 989 Размер потока : 25,4 Кбайт (0%) Язык : English Default : Нет Forced : Нет Текст #5 Идентификатор : 9 Формат : UTF-8 Идентификатор кодека : S_TEXT/UTF8 Идентификатор кодека/Информация : UTF-8 Plain Text Продолжительность : 1 ч. 40 м. Битрейт : 39 бит/сек Частота кадров : 0,189 кадр/сек Count of elements : 1139 Размер потока : 28,6 Кбайт (0%) Заголовок : SDH Язык : English Default : Нет Forced : Нет Меню 00:00:00.000 : en:Chapter 01 00:14:27.409 : en:Chapter 02 00:19:16.281 : en:Chapter 03 00:28:41.304 : en:Chapter 04 00:44:34.341 : en:Chapter 05 00:56:47.866 : en:Chapter 06 01:12:51.329 : en:Chapter 07 01:22:38.249 : en:Chapter 08 01:33:07.921 : en:Chapter 09 01:41:07.150 : en:Chapter 10
[+] Скриншоты

Всего файлов в раздаче: 1 
Civil.War.2024.x265.WEB-DL.2160p.HDR-DV.mkv19.05 GB

Похожие раздачи по запросу - Падение
2024-05-28 magnet Падение империи / Гражданская война / Civil War (2024) UHD WEB-DL 2160p | 4K | SDR | D, P2 16.52 GB ↑ 0 ↓ 1
2024-05-27 magnet Падение империи / Гражданская война / Civil War (2024) WEB-DLRip-AVC | D | HDRezka Studio 1.88 GB ↑ 0 ↓ 2
2024-05-27 magnet Падение империи / Гражданская война / Civil War (2024) WEB-DLRip 720p от DoMiNo & селезень | D, P2 | HDRezka Studio, ViruseProject 3.31 GB ↑ 0 ↓ 0
2024-05-27 magnet Падение империи / Гражданская война / Civil War (2024) WEB-DL 1080p от New-Team | D, P2 | HDRezka Studio, ViruseProject 6.93 GB ↑ 0 ↓ 9
2024-05-27 magnet Падение империи / Гражданская война / Civil War (2024) WEB-DLRip от MegaPeer | D | HDRezka Studio 1.46 GB ↑ 0 ↓ 0
2024-05-27 magnet Викинги: Взлет и падение / Vikings: Rise and Fall [S01] (2022) WEB-DL 1080p | Pazl Voice 8.02 GB ↑ 0 ↓ 0
2024-05-27 magnet Падение империи / Гражданская война / Civil War (2024) WEB-DLRip от ExKinoRay | P2 747.53 MB ↑ 0 ↓ 0

Кто качает (только для создателя раздачи и модераторов):
ПользовательIP:портОтдалПринялОстатокСидируетТоррент клиентОбновился
1 Аноним 178.127.52.143:51413 173.53 GB 0.00 B 0.00 B да -TR3000- 11:31 2024-06-16
2 Аноним 46.147.117.69:6890 19.35 MB 19.05 GB 0.00 B да -tT1630- 11:31 2024-06-16
3 Аноним 127.59.119.95:32000 336.00 kB 1.63 GB 18.98 GB нет -qB4390- 11:28 2024-06-16
4 Аноним 124.91.252.37:44657 0.00 B 0.00 B 8589934592.00 GB нет -qB4390- 11:17 2024-06-16
5 Аноним 188.162.52.117:46183 0.00 B 0.00 B 8589934592.00 GB нет -qB4390- 11:20 2024-06-16

Комментарии


Зарегистрируйтесь чтобы добавить комментарий
Торрент клиент
byTorrent - программа для загрузки торрент-файлов.

Скачать byTorrent.exe (1,5 МБ)

Скачать byTorrent.zip (0,6 МБ)

Поддержи torrent.by
российских рублей
(300 российских рублей это 4$)

Обратная связь rss

End game ©