↑↓torrent.by
Поиск
Логин:  Регистрация
Пароль:

Ветер / Wind (1992) HDRip-AVC | A

download Скачать торрент-файл   magnet Магнитная ссылка Размер: 2.78 GB Добавлен: 2024-05-28 11:00
Пиры будут получены из сети DHT
Последний сидер был замечен 2024-05-28 11:00
Ветер Информация о фильме Год релиза: 1992 Выпущено: США, Япония Жанр: Боевик, драма, спорт Режиссер: Кэррол Бэллард В ролях: Мэттью Модайн, Дженнифер Грей, Клифф Робертсон, Джек Томпсон, Стеллан Скарсгард, Ребекка Миллер, Нед Вон, Питер Монтгомери, Элмер Элуордт, Сэйлор Кресуэлл О фильме: Яхтсмен Уилл Паркер проигрывает самый престижный в мире приз, Кубок Америки, спортсмену из Австралии, и теперь смысл его жизни в том, чтобы отвоевать Кубок. В команду Паркера входит Кейт — девушка, с которой Паркера связывают запутанные романтические отношения. Продолжительность: 02:06:01 Перевод A: Авторский (одноголосый закадровый) Леонид Володарский Субтитры: нет Качество видео: HDRip-AVC Формат видео: MKV Видео: MPEG4 Video (H264) 976x528 23.976fps Bit rate 2 962 kb/s Аудио: Dolby AC3 48000Hz 2 ch (mono) 192kbps Реклама: Отсутствует Релиз от: ale_x2008
[+] MediaInfo Ветер (Wind) HDRip-AVC .mkv Format : Matroska Format version : Version 4 File size : 2.78 GiB Duration : 2 h 6 min Overall bit rate : 3 156 kb/s Frame rate : 23.976 FPS Encoded date : 2024-05-24 16:33:48 UTC Writing application : mkvmerge v71.0.0 ('Altitude') 64-bit Writing library : libebml v1.4.4 + libmatroska v1.7.1 Video ID : 1 Format : AVC Format/Info : Advanced Video Codec Format profile : High@L4.1 Format settings : CABAC / 16 Ref Frames Format settings, CABAC : Yes Format settings, Reference fra : 16 frames Codec ID : V_MPEG4/ISO/AVC Duration : 2 h 6 min Bit rate : 2 962 kb/s Width : 976 pixels Height : 528 pixels Display aspect ratio : 1.85:1 Frame rate mode : Constant Frame rate : 23.976 (24000/1001) FPS Color space : YUV Chroma subsampling : 4:2:0 Bit depth : 8 bits Scan type : Progressive Bits/(Pixel*Frame) : 0.240 Stream size : 2.61 GiB (94%) Writing library : x264 core 164 r3164 c196240 Encoding settings : cabac=1 / ref=16 / deblock=1:-3:-3 / analyse=0x3:0x133 / me=umh / subme=9 / psy=1 / psy_rd=1.00:0.00 / mixed_ref=1 / me_range=32 / chroma_me=1 / trellis=2 / 8x8dct=1 / cqm=0 / deadzone=21,11 / fast_pskip=1 / chroma_qp_offset=-2 / threads=16 / lookahead_threads=4 / sliced_threads=0 / nr=0 / decimate=1 / interlaced=0 / bluray_compat=0 / constrained_intra=0 / bframes=10 / b_pyramid=0 / b_adapt=2 / b_bias=0 / direct=3 / weightb=1 / open_gop=0 / weightp=2 / keyint=250 / keyint_min=23 / scenecut=40 / intra_refresh=0 / rc=crf / mbtree=0 / crf=20.0 / qcomp=0.60 / qpmin=0 / qpmax=69 / qpstep=4 / ip_ratio=1.40 / pb_ratio=1.30 / aq=1:1.00 Default : Yes Forced : No Audio ID : 2 Format : AC-3 Format/Info : Audio Coding 3 Commercial name : Dolby Digital Codec ID : A_AC3 Duration : 2 h 5 min Bit rate mode : Constant Bit rate : 192 kb/s Channel(s) : 2 channels Channel layout : L R Sampling rate : 48.0 kHz Frame rate : 31.250 FPS (1536 SPF) Compression mode : Lossy Stream size : 173 MiB (6%) Service kind : Complete Main Default : Yes Forced : No
[+] Скриншоты

Всего файлов в раздаче: 1 
Ветер (Wind) HDRip-AVC [by ale_x2008].mkv2.78 GB

Похожие раздачи по запросу - Ветер
2024-05-19 magnet Владимир Буковский - И возвращается ветер… (2024) MP3 399.99 MB ↑ 0 ↓ 0
2024-05-12 magnet Владимир Буковский - И возвращается ветер... (2012) FB2, EPUB, PDF 4.46 MB ↑ 0 ↓ 0

Кто качает (только для создателя раздачи и модераторов): Локальные пиры отсутствуют

Комментарии


Зарегистрируйтесь чтобы добавить комментарий
Торрент клиент
byTorrent - программа для загрузки торрент-файлов.

Скачать byTorrent.exe (1,5 МБ)

Скачать byTorrent.zip (0,6 МБ)

Поддержи torrent.by
российских рублей
(300 российских рублей это 4$)

Обратная связь rss

End game ©