↑↓torrent.by
Поиск
Логин:  Регистрация
Пароль:

Омен. Первое знамение / The First Omen (2024) WEB-DL 1080p | D

download Скачать торрент-файл   magnet Магнитная ссылка Размер: 9.13 GB Раздают: 0 Качают: 2 Добавлен: 2024-05-28 11:00
Пиры будут получены из сети DHT
Последний сидер был замечен 2024-06-13 15:33
Информация о фильме Название: Омен. Первое знамение Оригинальное название: The First Omen Год выпуска: 2024 Жанр: ужасы Выпущено: США, Италия, Сербия, Канада / 20th Century Studios Режиссер: Аркаша Стивенсон В ролях: Нелл Тайгер Фри, Ральф Айнесон, Соня Брага, Тауфик Бархом, Мария Кабальеро, Чарльз Дэнс, Билл Найи, Nicole Sorace, Ishtar Currie-Wilson, Андреа Арканджели Описание: Молодая американка отправляется в Рим, чтобы посвятить себя служению церкви. Там она сталкивается с тьмой и заговором, цель которого принести в мир воплощение зла. Продолжительность: 01:59:14 Перевод: Дублированный (MovieDalen) Субтитры: Русские (Forced, full), Английские (Forced, Full, SDH) Файл Формат: MKV Качество: WEB-DL 1080p Видео: AVC/H.264, 1918x1036, ~9999 Kbps Аудио 1: AC3, 2 ch, 192 Kbps, Русский Аудио 2: E-AC3 JOC, 6 ch, 768 Kbps, Английский
[+] MediaInfo:General Unique ID : 327507524790554509037933235048516349456 (0xF663A7A79148C689FF3E1AA33656EE10) Complete name : The.First.Omen.2024.1080p.WEB-DL.DDP5.1.Atmos.H.264-FLUX-RGB.mkv Format : Matroska Format version : Version 4 File size : 9.13 GiB Duration : 1 h 59 min Overall bit rate : 11.0 Mb/s Movie name : RGB Encoded date : UTC 2024-05-27 21:59:28 Writing application : mkvmerge v37.0.0 ('Leave It') 64-bit Writing library : libebml v1.3.9 + libmatroska v1.5.2 Video ID : 1 Format : AVC Format/Info : Advanced Video Codec Format profile : High@L4 Format settings : CABAC / 4 Ref Frames Format settings, CABAC : Yes Format settings, Reference frames : 4 frames Codec ID : V_MPEG4/ISO/AVC Duration : 1 h 59 min Bit rate : 9 999 kb/s Width : 1 918 pixels Height : 1 036 pixels Display aspect ratio : 1.85:1 Frame rate mode : Constant Frame rate : 24.000 FPS Color space : YUV Chroma subsampling : 4:2:0 Bit depth : 8 bits Scan type : Progressive Bits/(Pixel*Frame) : 0.210 Stream size : 8.33 GiB (91%) Title : RGB Language : English Default : Yes Forced : No Color range : Limited Color primaries : BT.709 Transfer characteristics : BT.709 Matrix coefficients : BT.709 Audio #1 ID : 2 Format : AC-3 Format/Info : Audio Coding 3 Commercial name : Dolby Digital Codec ID : A_AC3 Duration : 1 h 59 min Bit rate mode : Constant Bit rate : 192 kb/s Channel(s) : 2 channels Channel layout : L R Sampling rate : 48.0 kHz Frame rate : 31.250 FPS (1536 SPF) Compression mode : Lossy Stream size : 164 MiB (2%) Title : MovieDalen Language : Russian Service kind : Complete Main Default : Yes Forced : No Audio #2 ID : 3 Format : E-AC-3 JOC Format/Info : Enhanced AC-3 with Joint Object Coding Commercial name : Dolby Digital Plus with Dolby Atmos Codec ID : A_EAC3 Duration : 1 h 59 min Bit rate mode : Constant Bit rate : 768 kb/s Channel(s) : 6 channels Channel layout : L R C LFE Ls Rs Sampling rate : 48.0 kHz Frame rate : 31.250 FPS (1536 SPF) Compression mode : Lossy Stream size : 655 MiB (7%) Language : English Service kind : Complete Main Default : No Forced : No Complexity index : 16 Number of dynamic objects : 15 Bed channel count : 1 channel Bed channel configuration : LFE Text #1 ID : 4 Format : UTF-8 Codec ID : S_TEXT/UTF8 Codec ID/Info : UTF-8 Plain Text Duration : 1 h 38 min Bit rate : 0 b/s Count of elements : 16 Stream size : 663 Bytes (0%) Title : Forced Language : Russian Default : Yes Forced : Yes Text #2 ID : 5 Format : UTF-8 Codec ID : S_TEXT/UTF8 Codec ID/Info : UTF-8 Plain Text Duration : 1 h 49 min Bit rate : 45 b/s Count of elements : 937 Stream size : 36.7 KiB (0%) Language : Russian Default : No Forced : No Text #3 ID : 6 Format : UTF-8 Codec ID : S_TEXT/UTF8 Codec ID/Info : UTF-8 Plain Text Duration : 1 h 11 min Bit rate : 0 b/s Count of elements : 6 Stream size : 128 Bytes (0%) Title : Forced Language : English Default : No Forced : Yes Text #4 ID : 7 Format : UTF-8 Codec ID : S_TEXT/UTF8 Codec ID/Info : UTF-8 Plain Text Duration : 1 h 49 min Bit rate : 29 b/s Count of elements : 912 Stream size : 23.3 KiB (0%) Language : English Default : No Forced : No Text #5 ID : 8 Format : UTF-8 Codec ID : S_TEXT/UTF8 Codec ID/Info : UTF-8 Plain Text Duration : 1 h 54 min Bit rate : 50 b/s Count of elements : 1636 Stream size : 42.5 KiB (0%) Title : SDH Language : English Default : No Forced : No Menu 00:00:00.000 : en:Chapter 01 00:06:06.500 : en:Chapter 02 00:09:20.125 : en:Chapter 03 00:12:34.291 : en:Chapter 04 00:15:17.666 : en:Chapter 05 00:18:00.958 : en:Chapter 06 00:21:28.041 : en:Chapter 07 00:22:52.083 : en:Chapter 08 00:24:50.416 : en:Chapter 09 00:26:42.833 : en:Chapter 10 00:31:27.708 : en:Chapter 11 00:34:03.958 : en:Chapter 12 00:35:14.250 : en:Chapter 13 00:38:34.291 : en:Chapter 14 00:41:19.416 : en:Chapter 15 00:45:24.875 : en:Chapter 16 00:51:09.750 : en:Chapter 17 00:57:41.083 : en:Chapter 18 01:00:31.083 : en:Chapter 19 01:04:25.000 : en:Chapter 20 01:07:05.708 : en:Chapter 21 01:18:19.833 : en:Chapter 22 01:28:45.708 : en:Chapter 23 01:33:25.166 : en:Chapter 24 01:39:48.916 : en:Chapter 25 01:48:55.000 : en:Chapter 26 01:51:12.875 : en:Chapter 27
[+] Скриншоты

Всего файлов в раздаче: 1 
The.First.Omen.2024.1080p.WEB-DL.DDP5.1.Atmos.H.264-FLUX-RGB.mkv9.13 GB

Похожие раздачи по запросу - Омен
2024-05-31 magnet Омен. Первое знамение / Омен: Початок / The First Omen (2024) WEB-DL 1080p | D | UKR 9.29 GB ↑ 0 ↓ 0
2024-05-28 magnet Омен. Первое знамение / The First Omen (2024) WEB-DL-HEVC 2160p | 4K | HDR | Dolby Vision Profile 8 | D 21.36 GB ↑ 0 ↓ 0
2024-05-28 magnet Омен. Первое знамение / The First Omen (2024) WEB-DL-HEVC 2160p | 4K | SDR | D 10.80 GB ↑ 0 ↓ 1
2024-05-28 magnet Омен. Первое знамение / The First Omen (2024) WEB-DLRip 720p от DoMiNo & селезень | D | MovieDalen 3.61 GB ↑ 0 ↓ 0
2024-05-28 magnet Омен. Первое знамение / The First Omen (2024) WEB-DLRip от New-Team | D 2.18 GB ↑ 0 ↓ 0
2024-05-28 magnet Омен. Первое знамение / The First Omen (2024) WEB-DLRip от New-Team | D 1.47 GB ↑ 0 ↓ 0
2024-04-29 magnet Омен. Непорочная / Immaculate (2024) WEB-DL 720p от селезень | D, L | Soundmasters 2.45 GB ↑ 0 ↓ 0

Кто качает (только для создателя раздачи и модераторов):
ПользовательIP:портОтдалПринялОстатокСидируетТоррент клиентОбновился
1 Аноним 108.212.146.185:36639 0.00 B 1.25 GB 9.05 GB нет -qB4390- 01:28 2024-06-15
2 Аноним 65.255.116.176:37077 0.00 B 0.00 B 8589934592.00 GB нет -qB4390- 01:27 2024-06-15

Комментарии


Зарегистрируйтесь чтобы добавить комментарий
Торрент клиент
byTorrent - программа для загрузки торрент-файлов.

Скачать byTorrent.exe (1,5 МБ)

Скачать byTorrent.zip (0,6 МБ)

Поддержи torrent.by
российских рублей
(300 российских рублей это 4$)

Обратная связь rss

End game ©