↑↓torrent.by
Поиск
Логин:  Регистрация
Пароль:

Связь / Bound (1996) HDRip-AVC от DoMiNo | P

download Скачать торрент-файл   magnet Магнитная ссылка Размер: 743.75 MB Добавлен: 2024-05-28 17:00
Пиры будут получены из сети DHT
Последний сидер был замечен 2024-06-04 10:59
Информация о фильме Название: Связь Оригинальное название: Bound Год выхода: 1996 Жанр: Триллер, драма, криминал Режиссер: Энди Вачовски / Andy Wachowski, Ларри Вачовски / Larry Wachowski (это те, кто сняли "Матрицу") В ролях: Дженнифер Тилли, Джина Гершон, Бэрри Кайвел, Кристофер Мелони, Мэри Мара, Ричард С. Сарафьян, Джон Райан, Джо Пантолиано О фильме: Один из членов мафии присвоил два миллиона долларов, был разоблачен, подвергнут пыткам и убит. Все это происходило на глазах Вайолет, любовницы гангстера Сизара, у них дома. Она вообще многое знала, поскольку Сизар никогда ничего от нее не скрывал. А в соседней квартире обосновалась только что вышедшая из тюрьмы суперсексуальная лесбиянка Корки. Так родилась страстная связь двух женщин, а вместе с ней и идея присвоить те самые миллионы, которые хранятся у Сизара для босса мафии Джино Марзоне. Но не все пошло так, как было задумано. Выпущено: США Продолжительность: 01:48:34 Перевод: Профессиональный (многоголосый, закадровый) R5/Лицензия Субтитры: Russian, English Файл Формат: MKV Качество: HDRip-AVC Видео: x264, 728x392, ~876 kbps, 23.976 fps Аудио: AAC, 2 ch, ~80 kbps Формат субтитров: softsub (SRT) ***Релиз от: -=DoMiNo=-
[+] M/IGeneral Complete name : Связь.(1996).HDRip-AVC..mkv Format : Matroska Format version : Version 4 File size : 744 MiB Duration : 1 h 48 min Overall bit rate : 958 kb/s Movie name : Связь / Bound (1996) Encoded date : UTC 2019-05-20 17:56:29 Writing application : mkvmerge v34.0.0 ('Sight and Seen') 64-bit Writing library : libebml v1.3.7 + libmatroska v1.5.0 Attachments : poster.jpg Video ID : 1 Format : AVC Format/Info : Advanced Video Codec Format profile : High@L4.1 Format settings : CABAC / 14 Ref Frames Format settings, CABAC : Yes Format settings, Reference : 14 frames Codec ID : V_MPEG4/ISO/AVC Duration : 1 h 48 min Bit rate : 876 kb/s Width : 728 pixels Height : 392 pixels Display aspect ratio : 1.85:1 Frame rate mode : Constant Frame rate : 23.976 (24000/1001) FPS Color space : YUV Chroma subsampling : 4:2:0 Bit depth : 8 bits Scan type : Progressive Bits/(Pixel*Frame) : 0.128 Stream size : 680 MiB (91%) Title : RIP_BY_-=DoMiNo=- Writing library : x264 core 157 r2935 545de2f Encoding settings : cabac=1 / ref=14 / deblock=1:-2:-2 / analyse=0x3:0x133 / me=umh / subme=11 / psy=1 / psy_rd=1.00:0.00 / mixed_ref=1 / me_range=32 / chroma_me=1 / trellis=2 / 8x8dct=1 / cqm=0 / deadzone=21,11 / fast_pskip=0 / chroma_qp_offset=-2 / threads=6 / lookahead_threads=1 / sliced_threads=0 / nr=0 / decimate=0 / interlaced=0 / bluray_compat=0 / constrained_intra=0 / bframes=10 / b_pyramid=2 / b_adapt=2 / b_bias=0 / direct=3 / weightb=1 / open_gop=0 / weightp=2 / keyint=250 / keyint_min=23 / scenecut=40 / intra_refresh=0 / rc_lookahead=60 / rc=2pass / mbtree=1 / bitrate=876 / ratetol=1.0 / qcomp=0.60 / qpmin=0 / qpmax=69 / qpstep=4 / cplxblur=20.0 / qblur=0.5 / ip_ratio=1.40 / aq=3:1.00 Language : English Default : Yes Forced : No Audio ID : 2 Format : AAC LC SBR Format/Info : Advanced Audio Codec Low Complexity with Spectral Band Replication Commercial name : HE-AAC Format settings : Implicit Codec ID : A_AAC-2 Duration : 1 h 48 min Bit rate : 80.0 kb/s Channel(s) : 2 channels Channel layout : L R Sampling rate : 48.0 kHz Frame rate : 23.438 FPS (2048 SPF) Compression mode : Lossy Stream size : 62.1 MiB (8%) Title : MVO_R5 Language : Russian Default : Yes Forced : No Text #1 ID : 3 Format : UTF-8 Codec ID : S_TEXT/UTF8 Codec ID/Info : UTF-8 Plain Text Duration : 1 h 44 min Bit rate : 69 b/s Count of elements : 1083 Stream size : 53.1 KiB (0%) Language : Russian Default : No Forced : No Text #2 ID : 4 Format : UTF-8 Codec ID : S_TEXT/UTF8 Codec ID/Info : UTF-8 Plain Text Duration : 1 h 45 min Bit rate : 50 b/s Count of elements : 1291 Stream size : 39.1 KiB (0%) Language : English Default : No Forced : No Menu 00:00:00.000 : :Глава 1 00:03:07.270 : :Глава 2 00:06:53.580 : :Глава 3 00:10:44.352 : :Глава 4 00:14:29.160 : :Глава 5 00:18:07.461 : :Глава 6 00:20:37.862 : :Глава 7 00:23:17.438 : :Глава 8 00:26:16.658 : :Глава 9 00:29:47.619 : :Глава 10 00:34:11.049 : :Глава 11 00:38:27.388 : :Глава 12 00:44:01.264 : :Глава 13 00:48:00.586 : :Глава 14 00:52:43.285 : :Глава 15 00:56:52.034 : :Глава 16 01:01:35.191 : :Глава 17 01:08:30.481 : :Глава 18 01:15:44.498 : :Глава 19 01:21:53.242 : :Глава 20 01:27:36.167 : :Глава 21 01:32:28.376 : :Глава 22 01:38:15.848 : :Глава 23 01:44:15.791 : :Глава 24
[+] Скриншоты

Всего файлов в раздаче: 1 
Связь.(1996).HDRip-AVC.[-=DoMiNo=-].mkv743.75 MB

Похожие раздачи по запросу - Связь
2024-05-31 magnet Дмитрий Распопов - Связь без брака 4. Время собирать камни (2024) МР3 247.02 MB ↑ 0 ↓ 0
2024-05-28 magnet Связь / Bound (1996) BDRip-AVC от DoMiNo | P 2.19 GB ↑ 0 ↓ 0
2023-03-10 magnet Связь / Liaison [01x01-03 из 06] (2023) WEB-DL 1080p | Невафильм 12.94 GB ↑ 1 ↓ 0

Комментарии


Зарегистрируйтесь чтобы добавить комментарий
Торрент клиент
byTorrent - программа для загрузки торрент-файлов.

Скачать byTorrent.exe (1,5 МБ)

Скачать byTorrent.zip (0,6 МБ)

Поддержи torrent.by
российских рублей
(300 российских рублей это 4$)

Обратная связь rss

End game ©