↑↓torrent.by
Поиск
Логин:  Регистрация
Пароль:

Меч короля / Bastarden / The Promised Land (2023) BDRip 1080p от EniaHD | D | Пифагор

download Скачать торрент-файл   magnet Магнитная ссылка Размер: 13.89 GB Раздают: 0 Качают: 2 Добавлен: 2024-05-28 17:00
Пиры будут получены из сети DHT
Последний сидер был замечен 2024-05-28 22:16
Меч короля / Bastarden Страна: Дания, Швеция, Норвегия, Германия Жанр: драма, биография, история Год выпуска: 2023 Продолжительность: 02:07:08 Перевод: Профессиональный (дублированный) - Пифагор Субтитры: русские (Кинопоиск), английские, арабские, французские, испанские, датские (Forced, SDH) Режиссер: Николай Арсель / Nikolaj Arcel В ролях: Мадс Миккельсен, Аманда Коллин, Симон Беннебьёрг, Мелина Хагберг, Кристин Куят Торп, Густав Линд, Мортен Хи Андерсен, Томас В. Габриэльссон, Якоб Ульрик Ломанн, Магнус Креппер, Феликс Крамер, Олаф Хэйгор, Лаура Бильграу Эскильд-Йенсен, Анна Филиппа Ярне, Ханс Кристиан Лундгрен Описание: Дания, XVIII век. Для увеличения налоговых поступлений короли пытаются культивировать и заселить огромные болотистые земли Ютландии. Но из-за суровых погодных условий, бедной почвы и большого количества бродяг и преступников все попытки на протяжении десятилетий терпят крах. В 1755 году после 25 лет службы капитан датской армии Людвиг Кален уходит в отставку. Не желая заканчивать свои дни в доме для ветеранов, Кален решает заняться освоением болотистых пустошей Ютландии и обращается в королевское казначейство с просьбой об официальном содействии в реализации его планов. Идея вначале не находит поддержки, и Людвигу отказывают в финансировании, но он требует лишь дворянский титул с имением и слугами в случае успеха, после чего получает официальное одобрение казначейства. Прибыв на место и имея за душой лишь небольшую пенсию, бывший военный начинает нанимать людей для строительства и земледелия. Вскоре с ним вступает в конфликт влиятельный и жестокий местный землевладелец Фредерик де Шинкель, который считает эти земли своими. Тип релиза: BDRip 1080p | SbR Контейнер: MKV Видео: MPEG-4 AVC, 1920x804 (2.39:1), 24 fps, 14.2 mbps Аудио 1: RUS E-AC-3, 5.1, 48 kHz, 448 kbps Аудио 2: DAN E-AC-3, 5.1, 48 kHz, 1024 kbps Формат субтитров: softsub (SRT) Навигация по главам: есть
[+] MediaInfoGeneral Unique ID : 61806387682920003288018142425356199401 (0x2E7F7A2EF9CFAC52DB9E5185E71865E9) Complete name : Bastarden.2023.1080p.BluRay.x264-SbR_EniaHD.mkv Format : Matroska Format version : Version 4 File size : 13.9 GiB Duration : 2 h 7 min Overall bit rate : 15.6 Mb/s Frame rate : 24.000 FPS Movie name : Bastarden (2023) - EniaHD Writing application : mkvmerge v57.0.0 ('Till The End') 64-bit Writing library : libebml v1.4.2 + libmatroska v1.6.4 Video ID : 1 Format : AVC Format/Info : Advanced Video Codec Format profile : High@L4.1 Format settings : CABAC / 4 Ref Frames Format settings, CABAC : Yes Format settings, Reference fra : 4 frames Codec ID : V_MPEG4/ISO/AVC Duration : 2 h 7 min Bit rate : 14.2 Mb/s Width : 1 920 pixels Height : 804 pixels Display aspect ratio : 2.39:1 Frame rate mode : Constant Frame rate : 24.000 FPS Color space : YUV Chroma subsampling : 4:2:0 Bit depth : 8 bits Scan type : Progressive Bits/(Pixel*Frame) : 0.382 Stream size : 12.6 GiB (91%) Writing library : x264 core 164 r3144+47 7d6367c tMod@devel Encoding settings : cabac=1 / ref=4 / deblock=1:-3:-3 / analyse=0x3:0x133 / me=umh / subme=11 / psy=1 / fade_compensate=0.00 / psy_rd=1.00:0.00 / mixed_ref=1 / me_range=32 / chroma_me=1 / trellis=2 / 8x8dct=1 / cqm=0 / deadzone=21,11 / fast_pskip=1 / chroma_qp_offset=-2 / threads=32 / lookahead_threads=6 / sliced_threads=0 / nr=0 / decimate=1 / interlaced=0 / bluray_compat=0 / constrained_intra=0 / fgo=0 / bframes=10 / b_pyramid=2 / b_adapt=2 / b_bias=0 / direct=3 / weightb=1 / open_gop=0 / weightp=2 / keyint=250 / keyint_min=24 / scenecut=40 / intra_refresh=0 / rc=crf / mbtree=0 / crf=15.5000 / qcomp=0.60 / qpmin=0:0:0 / qpmax=69:69:69 / qpstep=4 / ip_ratio=1.25 / pb_ratio=1.20 / aq=3:0.80 / aq-sensitivity=10.00 / aq-factor=1.00:1.00:1.00:1.00 / aq2=0 / aq3=0 Default : Yes Forced : No Audio #1 ID : 2 Format : E-AC-3 Format/Info : Enhanced AC-3 Commercial name : Dolby Digital Plus Codec ID : A_EAC3 Duration : 2 h 7 min Bit rate mode : Constant Bit rate : 448 kb/s Channel(s) : 6 channels Channel layout : L R C LFE Ls Rs Sampling rate : 48.0 kHz Frame rate : 31.250 FPS (1536 SPF) Compression mode : Lossy Stream size : 407 MiB (3%) Title : Russian (Пифагор) Language : Russian Service kind : Complete Main Default : Yes Forced : No Audio #2 ID : 3 Format : E-AC-3 Format/Info : Enhanced AC-3 Commercial name : Dolby Digital Plus Codec ID : A_EAC3 Duration : 2 h 7 min Bit rate mode : Constant Bit rate : 1 024 kb/s Channel(s) : 6 channels Channel layout : L R C LFE Ls Rs Sampling rate : 48.0 kHz Frame rate : 31.250 FPS (1536 SPF) Compression mode : Lossy Stream size : 931 MiB (7%) Title : Danish Language : Danish Service kind : Complete Main Default : No Forced : No Text #1 ID : 4 Format : UTF-8 Codec ID : S_TEXT/UTF8 Codec ID/Info : UTF-8 Plain Text Duration : 2 h 6 min Bit rate : 56 b/s Frame rate : 0.139 FPS Count of elements : 1059 Stream size : 52.4 KiB (0%) Title : Russian Language : Russian Default : No Forced : No Text #2 ID : 5 Format : UTF-8 Codec ID : S_TEXT/UTF8 Codec ID/Info : UTF-8 Plain Text Duration : 2 h 1 min Bit rate : 38 b/s Frame rate : 0.121 FPS Count of elements : 888 Stream size : 34.4 KiB (0%) Title : English Language : English Default : No Forced : No Text #3 ID : 6 Format : UTF-8 Codec ID : S_TEXT/UTF8 Codec ID/Info : UTF-8 Plain Text Duration : 2 h 1 min Bit rate : 60 b/s Frame rate : 0.138 FPS Count of elements : 1005 Stream size : 53.7 KiB (0%) Title : Arabic Language : Arabic Default : No Forced : No Text #4 ID : 7 Format : UTF-8 Codec ID : S_TEXT/UTF8 Codec ID/Info : UTF-8 Plain Text Duration : 2 h 6 min Bit rate : 40 b/s Frame rate : 0.117 FPS Count of elements : 890 Stream size : 37.6 KiB (0%) Title : French Language : French Default : No Forced : No Text #5 ID : 8 Format : UTF-8 Codec ID : S_TEXT/UTF8 Codec ID/Info : UTF-8 Plain Text Duration : 2 h 1 min Bit rate : 37 b/s Frame rate : 0.142 FPS Count of elements : 1037 Stream size : 33.7 KiB (0%) Title : Spanish Language : Spanish (Latin America) Default : No Forced : No Text #6 ID : 9 Format : UTF-8 Codec ID : S_TEXT/UTF8 Codec ID/Info : UTF-8 Plain Text Duration : 2 h 5 min Bit rate : 39 b/s Frame rate : 0.111 FPS Count of elements : 833 Stream size : 35.8 KiB (0%) Title : Danish (SDH) Language : Danish Default : No Forced : No Text #7 ID : 10 Format : UTF-8 Codec ID : S_TEXT/UTF8 Codec ID/Info : UTF-8 Plain Text Duration : 2 h 0 min Bit rate : 7 b/s Frame rate : 0.022 FPS Count of elements : 157 Stream size : 6.25 KiB (0%) Title : Danish (Forced) Language : Danish Default : No Forced : No Menu 00:00:00.000 : en:Chapter 01 00:16:10.667 : en:Chapter 02 00:30:16.583 : en:Chapter 03 00:46:32.292 : en:Chapter 04 01:02:41.708 : en:Chapter 05 01:18:14.833 : en:Chapter 06 01:35:21.250 : en:Chapter 07 01:48:55.375 : en:Chapter 08 02:02:54.208 : en:Chapter 09
[+] Скриншоты

Всего файлов в раздаче: 1 
Bastarden.2023.1080p.BluRay.x264-SbR_EniaHD.mkv13.89 GB

Похожие раздачи по запросу - Меч
2024-05-29 magnet Меч короля / Bastarden / The Promised Land (2023) BDRip 1080p от ELEKTRI4KA | D 12.14 GB ↑ 0 ↓ 0
2024-05-29 magnet Меч короля / Bastarden / The Promised Land (2023) BDRip от MegaPeer | D | Пифагор 1.46 GB ↑ 1 ↓ 0
2024-05-29 magnet Меч короля / Bastarden / The Promised Land (2023) BDRip 1080p от New-Team | D, A 14.06 GB ↑ 0 ↓ 2
2024-05-29 magnet Меч короля / Bastarden / The Promised Land (2023) BDRip 720p от ELEKTRI4KA | D 6.87 GB ↑ 0 ↓ 0
2024-05-29 magnet Меч короля / Bastarden / The Promised Land (2023) BDRip 720p от ExKinoRay | D 4.79 GB ↑ 0 ↓ 0
2024-05-29 magnet Меч короля / Bastarden / The Promised Land (2023) BDRemux 1080p от ELEKTRI4KA | D 18.41 GB ↑ 0 ↓ 4
2024-05-29 magnet Меч короля / Bastarden / The Promised Land (2023) BDRip 1080p от DoMiNo & селезень | D | Пифагор 8.11 GB ↑ 0 ↓ 0

Комментарии


Зарегистрируйтесь чтобы добавить комментарий
Торрент клиент
byTorrent - программа для загрузки торрент-файлов.

Скачать byTorrent.exe (1,5 МБ)

Скачать byTorrent.zip (0,6 МБ)

Поддержи torrent.by
российских рублей
(300 российских рублей это 4$)

Обратная связь rss

End game ©