↑↓torrent.by
Поиск
Логин:  Регистрация
Пароль:

Элсбет / Elsbeth [S01] (2024) WEB-DL 1080p | TVShows

download Скачать торрент-файл   magnet Магнитная ссылка Размер: 23.15 GB Раздают: 0 Качают: 2 Добавлен: 2024-05-28 17:00
Пиры будут получены из сети DHT
Последний сидер был замечен вчера в 17:51
Название: Элсбет Оригинальное название: Elsbeth Год выхода: 2014 Производство: США / King Size Productions, CBS Studios Жанр: Драма, комедия, криминал Перевод: Профессиональный многоголосый Продолжительность: 10х ~00:44:00 Режиссёры: Роберт Кинг, Розмари Родригез, Роб Харди В ролях: Кэрри Престон, Фредерик Лене, Дэнни Мастроджорджо, Аджай Найду, Карра Паттерсон, Уэнделл Пирс, Джулия МакДермотт, Дэнни Маккарти, Молли Прайс, Келли АуКойн, Микаэла Даймонд Описание: Уникальный, в своём роде, адвокат Элсбет Тассиони уезжает из Чикаго в Нью-Йорк, где содействует полиции в расследовании запутанных дел. Эксцентричная, эмоциональная и бесконечно милая Элсбет - кот в мешке. Всем она кажется слишком восторженной и легкомысленной, но за этой маской скрывается острый ум, наблюдательность и большие познания в криминалистике. Формат: MKV Качество: WEB-DL 1080p Видео: MPEG4 AVC / ~6889 kbps / 1920x1080 / 0.139 Бит/(Пиксели*Кадры) / 23.976 fps Аудио 01: AC-3, 6 ch, 384 kbps | Русский, MVO | TVShows | Аудио 02: E-AC3, 6 ch, 640 kbps | Original | Субтитры: Английские (Full, SDH)
[+] MediainfoGeneral Unique ID : 241987832147566710921233050004344954680 (0xB60D2945205B7972F5A7E42458665F38) Complete name : W:ElsbethElsbeth.S01E01.Pilot.1080p.AMZN.WEB-DL.DDP5.1.H.264.Rus.Eng.mkv Format : Matroska Format version : Version 4 / Version 2 File size : 2.39 GiB Duration : 43 min 18 s Overall bit rate : 7 915 kb/s Encoded date : UTC 2024-03-05 13:55:03 Writing application : mkvmerge v65.0.0 ('Too Much') 64-bit Writing library : libebml v1.4.2 + libmatroska v1.6.4 Video ID : 1 Format : AVC Format/Info : Advanced Video Codec Format profile : High@L4 Format settings : CABAC / 4 Ref Frames Format settings, CABAC : Yes Format settings, ReFrames : 4 frames Codec ID : V_MPEG4/ISO/AVC Duration : 43 min 18 s Bit rate mode : Constant Bit rate : 6 889 kb/s Nominal bit rate : 10 000 kb/s Width : 1 920 pixels Height : 1 080 pixels Display aspect ratio : 16:9 Frame rate mode : Constant Frame rate : 23.976 (24000/1001) FPS Color space : YUV Chroma subsampling : 4:2:0 Bit depth : 8 bits Scan type : Progressive Bits/(Pixel*Frame) : 0.139 Stream size : 2.08 GiB (87%) Default : Yes Forced : No Color range : Limited Color primaries : BT.709 Transfer characteristics : BT.709 Matrix coefficients : BT.709 Audio #1 ID : 2 Format : AC-3 Format/Info : Audio Coding 3 Codec ID : A_AC3 Duration : 43 min 18 s Bit rate mode : Constant Bit rate : 384 kb/s Channel(s) : 6 channels Channel positions : Front: L C R, Side: L R, LFE Sampling rate : 48.0 kHz Frame rate : 31.250 FPS (1536 SPF) Bit depth : 16 bits Compression mode : Lossy Stream size : 119 MiB (5%) Title : TVShows Language : Russian Service kind : Complete Main Default : Yes Forced : No Audio #2 ID : 3 Format : E-AC-3 Format/Info : Enhanced Audio Coding 3 Codec ID : A_EAC3 Duration : 43 min 18 s Bit rate mode : Constant Bit rate : 640 kb/s Channel(s) : 6 channels Channel positions : Front: L C R, Side: L R, LFE Sampling rate : 48.0 kHz Frame rate : 187.500 FPS (256 SPF) Compression mode : Lossy Stream size : 198 MiB (8%) Language : English Service kind : Complete Main Default : No Forced : No Text #1 ID : 4 Format : UTF-8 Codec ID : S_TEXT/UTF8 Codec ID/Info : UTF-8 Plain Text Duration : 42 min 36 s Bit rate : 91 b/s Count of elements : 974 Stream size : 28.4 KiB (0%) Language : English Default : No Forced : No Text #2 ID : 5 Format : UTF-8 Codec ID : S_TEXT/UTF8 Codec ID/Info : UTF-8 Plain Text Duration : 42 min 42 s Bit rate : 95 b/s Count of elements : 1027 Stream size : 30.0 KiB (0%) Title : SDH Language : English Default : No Forced : No
[+] Скриншоты

Всего файлов в раздаче: 10 
Elsbeth.S01E01.Pilot.1080p.AMZN.WEB-DL.DDP5.1.H.264.Rus.Eng.mkv2.39 GB
Elsbeth.S01E02.A.Classic.New.York.Character.1080p.AMZN.WEB-DL.DDP5.1.H.264.Rus.Eng.mkv2.21 GB
Elsbeth.S01E03.Reality.Shock.1080p.AMZN.WEB-DL.DDP5.1.H.264.Rus.Eng.mkv2.18 GB
Elsbeth.S01E04.Love.Knocked.Off.1080p.AMZN.WEB-DL.DDP5.1.H.264.Rus.Eng.mkv2.41 GB
Elsbeth.S01E05.Ball.Girl.1080p.AMZN.WEB-DL.DDP5.1.H.264.Rus.Eng.mkv2.41 GB
Elsbeth.S01E06.An.Ear.for.an.Ear.1080p.AMZN.WEB-DL.DDP5.1.H.264-NTb.mkv2.34 GB
Elsbeth.S01E07.Something.Blue.1080p.AMZN.WEB-DL.DDP5.1.H.264-NTb.mkv2.37 GB
Elsbeth.S01E08.Artificial.Genius.mkv2.38 GB
Elsbeth.S01E09.Sweet.Justice.mkv1.95 GB
Elsbeth.S01E10.A.Fitting.Finale.mkv2.50 GB

Кто качает (только для создателя раздачи и модераторов):
ПользовательIP:портОтдалПринялОстатокСидируетТоррент клиентОбновился
1 Аноним 5.139.40.79:45007 0.00 B 1.68 GB 21.48 GB нет -UT3550- 19:01 2024-06-17
2 Аноним 43.209.252.109:38979 3.17 MB 5.92 GB 23.03 GB нет -qB4390- 19:07 2024-06-17

Комментарии


Зарегистрируйтесь чтобы добавить комментарий
Торрент клиент
byTorrent - программа для загрузки торрент-файлов.

Скачать byTorrent.exe (1,5 МБ)

Скачать byTorrent.zip (0,6 МБ)

Поддержи torrent.by
российских рублей
(300 российских рублей это 4$)

Обратная связь rss

End game ©