↑↓torrent.by
Поиск
Логин:  Регистрация
Пароль:

Омен. Первое знамение / The First Omen (2024) WEB-DL-HEVC 2160p | 4K | SDR | D

download Скачать торрент-файл   magnet Магнитная ссылка Размер: 10.80 GB Добавлен: 2024-05-28 17:00
Пиры будут получены из сети DHT
Последний сидер был замечен 2024-05-29 17:13
Информация о фильме Название: Омен. Первое знамение Оригинальное название: The First Omen Год выпуска: 2024 Жанр: ужасы Выпущено: США, Италия, Сербия, Канада / 20th Century Studios Режиссер: Аркаша Стивенсон В ролях: Нелл Тайгер Фри, Ральф Айнесон, Соня Брага, Тауфик Бархом, Мария Кабальеро, Чарльз Дэнс, Билл Найи, Nicole Sorace, Ishtar Currie-Wilson, Андреа Арканджели Описание: Молодая американка отправляется в Рим, чтобы посвятить себя служению церкви. Там она сталкивается с тьмой и заговором, цель которого принести в мир воплощение зла. Продолжительность: 01:59:13 Перевод: Дублированный (MovieDalen) Субтитры: Русские (Forced, full), Английские Файл Формат: MKV Качество: WEB-DL-HEVC 2160p | 4K | SDR Видео: HEVC/H.265, 3840х2074, ~12,0 Mbps Аудио 1: AC3, 2 ch, 192 Kbps, Русский Аудио 2: E-AC3 JOC, 6 ch, 768 Kbps, Английский
[+] MediaInfo:Общее Уникальный идентификатор : 85015508767517794767074789521273684776 (0x3FF564334446AA120E9E65C19E4C8328) Полное имя : D:The.First.Omen.2024.2160p.SDR.mkv Формат : Matroska Версия формата : Version 4 Размер файла : 10,8 Гбайт Продолжительность : 1 ч. 59 мин. Общий битрейт : 13,0 Мбит/сек Частота кадров : 24,000 кадра/сек Дата кодирования : 2024-05-28 05:46:08 UTC Программа кодирования : mkvmerge v84.0 ('Sleeper') 64-bit Библиотека кодирования : libebml v1.4.5 + libmatroska v1.7.1 Видео Идентификатор : 1 Формат : HEVC Формат/Информация : High Efficiency Video Coding Профиль формата : Main 10@L5@High Идентификатор кодека : V_MPEGH/ISO/HEVC Продолжительность : 1 ч. 59 мин. Битрейт : 12,0 Мбит/сек Ширина : 3 840 пикселей Высота : 2 074 пикселя Соотношение сторон дисплея : 1,85:1 Режим частоты кадров : Постоянный Частота кадров : 24,000 кадра/сек Цветовое пространство : YUV Цветовая субдискретизация : 4:2:0 Битовая глубина : 10 бит Бит/(Пиксели*Кадры) : 0.063 Размер потока : 10,00 Гбайт (93%) Язык : Английский По умолчанию : Да Принудительно : Нет Цветовой диапазон : Limited Основные цвета : BT.709 Характеристики трансфера : BT.709 Коэффициенты матрицы : BT.709 Аудио #1 Идентификатор : 2 Формат : AC-3 Формат/Информация : Audio Coding 3 Коммерческое название : Dolby Digital Идентификатор кодека : A_AC3 Продолжительность : 1 ч. 59 мин. Вид битрейта : Постоянный Битрейт : 192 Кбит/сек Канал(-ы) : 2 канала Расположение каналов : L R Частота дискретизации : 48,0 КГц Частота кадров : 31,250 кадров/сек (1536 SPF) Метод сжатия : С потерями Размер потока : 164 Мбайт (1%) Заголовок : MovieDalen Язык : Русский Вид сервиса : Complete Main По умолчанию : Да Принудительно : Нет Нормализация звука речи : -31 dB dialnorm_Average : -31 dB dialnorm_Minimum : -31 dB dialnorm_Maximum : -31 dB Аудио #2 Идентификатор : 3 Формат : E-AC-3 JOC Формат/Информация : Enhanced AC-3 with Joint Object Coding Коммерческое название : Dolby Digital Plus with Dolby Atmos Идентификатор кодека : A_EAC3 Продолжительность : 1 ч. 59 мин. Вид битрейта : Постоянный Битрейт : 768 Кбит/сек Канал(-ы) : 6 каналов Расположение каналов : L R C LFE Ls Rs Частота дискретизации : 48,0 КГц Частота кадров : 31,250 кадров/сек (1536 SPF) Метод сжатия : С потерями Размер потока : 655 Мбайт (6%) Язык : Английский Вид сервиса : Complete Main По умолчанию : Нет Принудительно : Нет Показатель сложности : 16 Количество динамических объектов : 15 Число каналов бэда : 1 канал Конфигурация каналов бэда : LFE Нормализация звука речи : -27 dB compr : -0.28 dB dialnorm_Average : -27 dB dialnorm_Minimum : -27 dB dialnorm_Maximum : -27 dB Текст #1 Идентификатор : 4 Формат : UTF-8 Идентификатор кодека : S_TEXT/UTF8 Идентификатор кодека/Информация : UTF-8 Plain Text Продолжительность : 1 ч. 38 мин. Битрейт : 0 бит/сек Частота кадров : 0,003 кадр/сек Число элементов : 16 Размер потока : 663 байта (0%) Заголовок : Forced Язык : Русский По умолчанию : Да Принудительно : Да Текст #2 Идентификатор : 5 Формат : UTF-8 Идентификатор кодека : S_TEXT/UTF8 Идентификатор кодека/Информация : UTF-8 Plain Text Продолжительность : 1 ч. 49 мин. Битрейт : 45 бит/сек Частота кадров : 0,142 кадр/сек Число элементов : 937 Размер потока : 36,7 КиБ (0%) Язык : Русский По умолчанию : Нет Принудительно : Нет Текст #3 Идентификатор : 6 Формат : UTF-8 Идентификатор кодека : S_TEXT/UTF8 Идентификатор кодека/Информация : UTF-8 Plain Text Продолжительность : 1 ч. 11 мин. Битрейт : 0 бит/сек Частота кадров : 0,001 кадр/сек Число элементов : 6 Размер потока : 128 байт (0%) Заголовок : Forced Язык : Английский По умолчанию : Нет Принудительно : Да Текст #4 Идентификатор : 7 Формат : UTF-8 Идентификатор кодека : S_TEXT/UTF8 Идентификатор кодека/Информация : UTF-8 Plain Text Продолжительность : 1 ч. 49 мин. Битрейт : 29 бит/сек Частота кадров : 0,138 кадр/сек Число элементов : 912 Размер потока : 23,3 КиБ (0%) Язык : Английский По умолчанию : Нет Принудительно : Нет Текст #5 Идентификатор : 8 Формат : UTF-8 Идентификатор кодека : S_TEXT/UTF8 Идентификатор кодека/Информация : UTF-8 Plain Text Продолжительность : 1 ч. 54 мин. Битрейт : 50 бит/сек Частота кадров : 0,239 кадр/сек Число элементов : 1636 Размер потока : 42,5 КиБ (0%) Заголовок : SDH Язык : Английский По умолчанию : Нет Принудительно : Нет Меню 00:00:00.000 : en:Chapter 01 00:06:06.500 : en:Chapter 02 00:09:20.125 : en:Chapter 03 00:12:34.291 : en:Chapter 04 00:15:17.666 : en:Chapter 05 00:18:00.958 : en:Chapter 06 00:21:28.041 : en:Chapter 07 00:22:52.083 : en:Chapter 08 00:24:50.416 : en:Chapter 09 00:26:42.833 : en:Chapter 10 00:31:27.708 : en:Chapter 11 00:34:03.958 : en:Chapter 12 00:35:14.250 : en:Chapter 13 00:38:34.291 : en:Chapter 14 00:41:19.416 : en:Chapter 15 00:45:24.875 : en:Chapter 16 00:51:09.750 : en:Chapter 17 00:57:41.083 : en:Chapter 18 01:00:31.083 : en:Chapter 19 01:04:25.000 : en:Chapter 20 01:07:05.708 : en:Chapter 21 01:18:19.833 : en:Chapter 22 01:28:45.708 : en:Chapter 23 01:33:25.166 : en:Chapter 24 01:39:48.916 : en:Chapter 25 01:48:55.000 : en:Chapter 26 01:51:12.875 : en:Chapter 27
[+] Скриншоты

Всего файлов в раздаче: 1 
The.First.Omen.2024.2160p.SDR.mkv10.80 GB

Похожие раздачи по запросу - Омен
2024-06-17 magnet Омен. Непорочная / Immaculate (2024) BDRip 1080p от DoMiNo & селезень | D, L | Soundmasters 6.06 GB ↑ 0 ↓ 1
2024-06-16 magnet Омен. Непорочная / Immaculate (2024) BDRip-AVC от DoMiNo & селезень | D, L | Soundmasters 1.45 GB ↑ 0 ↓ 0
2024-06-15 magnet Омен. Непорочная / Immaculate (2024) BDRip 720p от DoMiNo & селезень | D, L | Soundmasters 3.87 GB ↑ 0 ↓ 0
2024-06-15 magnet Омен. Непорочная / Immaculate (2024) BDRip-AVC от New-Team | D, L | Soundmasters 1.73 GB ↑ 0 ↓ 0
2024-06-15 magnet Омен. Непорочная / Immaculate (2024) BDRip от New-Team | D | Soundmasters 1.46 GB ↑ 0 ↓ 0
2024-05-31 magnet Омен. Первое знамение / Омен: Початок / The First Omen (2024) WEB-DL 1080p | D | UKR 9.29 GB ↑ 0 ↓ 0
2024-05-28 magnet Омен. Первое знамение / The First Omen (2024) WEB-DL-HEVC 2160p | 4K | HDR | Dolby Vision Profile 8 | D 21.36 GB ↑ 0 ↓ 0

Комментарии


Зарегистрируйтесь чтобы добавить комментарий
Торрент клиент
byTorrent - программа для загрузки торрент-файлов.

Скачать byTorrent.exe (1,5 МБ)

Скачать byTorrent.zip (0,6 МБ)

Поддержи torrent.by
российских рублей
(300 российских рублей это 4$)

Обратная связь rss

End game ©