↑↓torrent.by
Поиск
Логин:  Регистрация
Пароль:

Красные комнаты / Les chambres rouges / Red Rooms (2023) BDRip 1080p от New-Team | P | TVShows

download Скачать торрент-файл   magnet Магнитная ссылка Размер: 8.95 GB Раздают: 0 Качают: 1 Добавлен: 2024-05-29 05:00
Пиры будут получены из сети DHT
Последний сидер был замечен 2024-06-02 10:59
Красные комнаты / Les chambres rouges / Red Rooms Год выпуска: 2023 Выпущено: Канада, Nemesis Films Productions Жанр: Триллер Режиссер: Паскаль Планте / Pascal Plante В ролях: Жюльетт Гариепи, Лори Бэбин, Элизабет Локас, Максвелл МакКейб-Локос, Натали Танноус, Пьер Шаньон, Ги Товетт, Шарлотта Обен, Себастьен Бюлак, Фредерик Де Гранпре О фильме: В суде идет рассмотрение громкого дела серийного убийцы Людовика Шевалье. Молодая женщина Кэлли-Энн ночует у здания суда, чтобы успеть занять место в зале суда и не пропустить заседание. Она болезненно одержима личностью убийцы и хочет разгадать тайну пропавшего видео, на котором запечатлено убийство 13-летней девочки, похожей на героиню как две капли воды. Продолжительность: 01:58:24 Перевод: Профессиональный (многоголосый, закадровый) | TVShows Субтитры: Русские (full (AI)), английские (full) Раздача от: Автор релиза: JNS82. Формат: MKV Качество: BDRip 1080p Видео: MPEG-4 AVC, 10000 Кбит/с, 1620x1080 Аудио #1: AC3, 6 ch, 384 Кбит/с | RUS | Аудио #2: AC3, 6 ch, 448 Кбит/с | FRE |
[+] MediaInfoОбщее Уникальный идентификатор : 209398765764253531042997980172797216948 (0x9D88BC3E9B7332327C6D8BCDF5BE08B4) Полное имя : D:TorrentsRed.Rooms.2023.BDRip.1080p_от New-Team_by_JNS82.mkv Формат : Matroska Версия формата : Version 4 Размер файла : 8,95 Гбайт Продолжительность : 1 ч. 58 м. Общий поток : 10,8 Мбит/сек Название фильма : Red.Rooms.2023.BDRip.1080p_от New-Team_by_JNS82 Дата кодирования : UTC 2024-05-28 13:52:15 Программа кодирования : mkvmerge v79.0 ('Funeral Pyres') 64-bit Библиотека кодирования : libebml v1.4.4 + libmatroska v1.7.1 Видео Идентификатор : 1 Формат : AVC Формат/Информация : Advanced Video Codec Профиль формата : High@L4.1 Настройки формата : CABAC / 5 Ref Frames Параметр CABAC формата : Да Параметр RefFrames формата : 5 кадров Идентификатор кодека : V_MPEG4/ISO/AVC Продолжительность : 1 ч. 58 м. Битрейт : 10 000 Кбит/сек Ширина : 1 620 пикселей Высота : 1 080 пикселей Соотношение сторон : 3:2 Режим частоты кадров : Постоянный Частота кадров : 23,976 (24000/1001) кадра/сек Цветовое пространство : YUV Субдискретизация насыщенности : 4:2:0 Битовая глубина : 8 бит Тип развёртки : Прогрессивная Бит/(Пиксели*Кадры) : 0.238 Размер потока : 8,26 Гбайт (92%) Библиотека кодирования : x264 core 164 r3156+57M NewTeam t_mod_New Настройки программы : cabac=1 / ref=5 / deblock=1:-3:-2 / analyse=0x3:0x133 / me=umh / subme=10 / psy=1 / fade_compensate=0.00 / psy_rd=1.00:0.02 / mixed_ref=1 / me_range=48 / chroma_me=1 / trellis=2 / 8x8dct=1 / cqm=0 / deadzone=21,11 / fast_pskip=0 / chroma_qp_offset=-3 / threads=18 / lookahead_threads=3 / sliced_threads=0 / nr=0 / decimate=0 / interlaced=0 / bluray_compat=0 / constrained_intra=0 / fgo=0 / bframes=9 / b_pyramid=2 / b_adapt=2 / b_bias=0 / direct=3 / weightb=1 / open_gop=0 / weightp=2 / keyint=240 / keyint_min=23 / scenecut=40 / intra_refresh=0 / rc_lookahead=60 / rc=2pass / mbtree=0 / bitrate=10000 / ratetol=1.0 / qcomp=0.60 / qpmin=0:0:0 / qpmax=69:69:69 / qpstep=4 / cplxblur=20.0 / qblur=0.5 / vbv_maxrate=50000 / vbv_bufsize=62500 / nal_hrd=none / filler=0 / ip_ratio=1.40 / pb_ratio=1.30 / aq=1:1.00 / aq-sensitivity=10.00 / aq-factor=1.00:1.00:1.00 / aq2=0 / aq3=0 Язык : English Default : Да Forced : Нет Аудио #1 Идентификатор : 2 Формат : AC-3 Формат/Информация : Audio Coding 3 Коммерческое название : Dolby Digital Идентификатор кодека : A_AC3 Продолжительность : 1 ч. 58 м. Вид битрейта : Постоянный Битрейт : 384 Кбит/сек Каналы : 6 каналов Channel layout : L R C LFE Ls Rs Частота : 48,0 КГц Частота кадров : 31,250 кадров/сек (1536 SPF) Метод сжатия : С потерями Размер потока : 325 Мбайт (4%) Заголовок : MVO - TVShows Язык : Russian Service kind : Complete Main Default : Да Forced : Нет Аудио #2 Идентификатор : 3 Формат : AC-3 Формат/Информация : Audio Coding 3 Коммерческое название : Dolby Digital Идентификатор кодека : A_AC3 Продолжительность : 1 ч. 58 м. Вид битрейта : Постоянный Битрейт : 448 Кбит/сек Каналы : 6 каналов Channel layout : L R C LFE Ls Rs Частота : 48,0 КГц Частота кадров : 31,250 кадров/сек (1536 SPF) Метод сжатия : С потерями Размер потока : 379 Мбайт (4%) Заголовок : Original Язык : French Service kind : Complete Main Default : Нет Forced : Нет Текст #1 Идентификатор : 4 Формат : UTF-8 Идентификатор кодека : S_TEXT/UTF8 Идентификатор кодека/Информация : UTF-8 Plain Text Продолжительность : 1 ч. 49 м. Битрейт : 84 бит/сек Count of elements : 922 Размер потока : 68,2 Кбайт (0%) Заголовок : Язык : Russian Default : Нет Forced : Нет Текст #2 Идентификатор : 5 Формат : UTF-8 Идентификатор кодека : S_TEXT/UTF8 Идентификатор кодека/Информация : UTF-8 Plain Text Продолжительность : 1 ч. 49 м. Битрейт : 46 бит/сек Count of elements : 922 Размер потока : 37,4 Кбайт (0%) Заголовок : Язык : English Default : Нет Forced : Нет Меню 00:00:00.000 : en:Chapter 01 00:03:52.232 : en:Chapter 02 00:07:20.774 : en:Chapter 03 00:09:32.572 : en:Chapter 04 00:15:41.607 : en:Chapter 05 00:21:38.297 : en:Chapter 06 00:23:52.431 : en:Chapter 07 00:28:26.038 : en:Chapter 08 00:30:51.850 : en:Chapter 09 00:36:08.166 : en:Chapter 10 00:38:42.320 : en:Chapter 11 00:44:20.992 : en:Chapter 12 00:48:45.923 : en:Chapter 13 00:53:08.185 : en:Chapter 14 00:58:54.531 : en:Chapter 15 01:01:27.017 : en:Chapter 16 01:07:12.028 : en:Chapter 17 01:10:38.234 : en:Chapter 18 01:13:31.741 : en:Chapter 19 01:16:31.921 : en:Chapter 20 01:19:37.439 : en:Chapter 21 01:23:46.021 : en:Chapter 22 01:27:17.566 : en:Chapter 23 01:31:48.503 : en:Chapter 24 01:34:59.694 : en:Chapter 25 01:37:17.498 : en:Chapter 26 01:40:52.713 : en:Chapter 27 01:43:51.225 : en:Chapter 28 01:46:18.414 : en:Chapter 29 01:48:07.481 : en:Chapter 30 01:51:30.017 : en:Chapter 31 01:54:07.841 : en:Chapter 32

Всего файлов в раздаче: 1 
Red.Rooms.2023.BDRip.1080p_от New-Team_by_JNS82.mkv8.95 GB

Похожие раздачи по запросу - Красные
Сегодня magnet Красные линии [S01] (2024) WEBRip-AVC от Generalfilm | КПК 1.20 GB ↑ 0 ↓ 0
2024-06-13 magnet Красные линии [S01] (2024) WEBRip-AVC от Files-х 3.39 GB ↑ 0 ↓ 0
2024-06-13 magnet Красные линии [S01] (2024) WEBRip 3.22 GB ↑ 0 ↓ 0
2024-06-13 magnet Красные линии [S01] (2024) WEBRip 1080p от ExKinoRay 11.82 GB ↑ 0 ↓ 0
2024-06-10 magnet Красные линии [01х01-05 из 06] (2024) WEBRip-AVC от Generalfilm | КПК 1017.71 MB ↑ 0 ↓ 0
2024-06-07 magnet Красные линии [01-05 из 06] (2024) WEBRip 1080p от ExKinoRay 9.81 GB ↑ 0 ↓ 0
2024-06-07 magnet Красные линии [01х01-05 из 06] (2024) WEBRip-AVC от Files-х 2.81 GB ↑ 1 ↓ 0

Комментарии


Зарегистрируйтесь чтобы добавить комментарий
Торрент клиент
byTorrent - программа для загрузки торрент-файлов.

Скачать byTorrent.exe (1,5 МБ)

Скачать byTorrent.zip (0,6 МБ)

Поддержи torrent.by
российских рублей
(300 российских рублей это 4$)

Обратная связь rss

End game ©