↑↓torrent.by
Поиск
Логин:  Регистрация
Пароль:

Клуб Зеро / Club Zero (2023) WEB-DL 720p от селезень | P | TVShows

download Скачать торрент-файл   magnet Магнитная ссылка Размер: 2.85 GB Добавлен: 2024-05-29 17:00
Пиры будут получены из сети DHT
Последний сидер был замечен 2024-05-29 17:00
Информация о фильме Название: Клуб Зеро Оригинальное название: Club Zero Год выпуска: 2023 Жанр: Драма, комедия Режиссер: Джессика Хауснер В ролях: Миа Васиковска, Ксения Девриенд, Люк Баркер, Самуэль Д Андерсон, Гвен Куррант, Андрей Хозоц, Садэ МакНиколс-Томас, Сидсе Бабетт Кнудсен, Амир Эль-Масри, Аманда Лоуренс О фильме: В элитной частной школе появляется новая учительница — загадочная мисс Новак. По просьбе родителей мисс Новак прививает детям новые привычки питания, обучает их осознанному подходу в выборе рациона, рассказывает, как сокращать потребление и тем самым заботиться об окружающем мире. Последователи философии мисс Новак образуют закрытый Клуб Зеро — тайное сообщество, члены которого решают, что они могут в принципе отказаться от еды — и тем самым изменить мир. Постепенно родители и школьная администрация начинают понимать, что что-то не так — но смогут ли они остановить Клуб Зеро? Выпущено: Австрия, Великобритания, Германия, Франция, Дания, Катар / Coop99 Filmproduktion, BBC Film, Essential Filmproduktion GmbH, Coproduction Office, Parisienne de Production, Parisienne, Club Zero Продолжительность: 01:49:45 Перевод: Профессиональный (многоголосый, закадровый) | TVShows Субтитры: Английские (Full, SDH) Файл Формат: Matroska Качество: WEB-DL 720p | AMZN Видео: 1280@1272x688 at 23.976 fps, MPEG-4 AVC, ~2695 kbps Аудио 1: AC3, 6 ch, ~384 kbps - | Русский | Аудио 2: E-AC3, 6 ch, ~640 kbps - | Английский | Формат субтитров: softsub (SRT)
[+] M/IGeneral Unique ID : 318605635074770691874728815112738217917 (0xEFB1369B18FB38610DE468D544FA9FBD) Complete name : T:Club.Zero.2023.AMZN.WEB-DL.720p.x264.seleZen.mkv Format : Matroska Format version : Version 4 File size : 2.85 GiB Duration : 1 h 49 min Overall bit rate : 3 721 kb/s Frame rate : 23.976 FPS Movie name : Club.Zero.2023.AMZN.WEB-DL.720p.x264.seleZen Encoded date : 2024-05-29 05:59:00 UTC Writing application : mkvmerge v84.0 ('Sleeper') 64-bit Writing library : libebml v1.4.5 + libmatroska v1.7.1 Cover : Yes Attachments : cover.jpg / small_cover.jpg Video ID : 1 Format : AVC Format/Info : Advanced Video Codec Format profile : High@L3.1 Format settings : CABAC / 4 Ref Frames Format settings, CABAC : Yes Format settings, Reference : 4 frames Codec ID : V_MPEG4/ISO/AVC Duration : 1 h 49 min Bit rate mode : Constant Bit rate : 2 695 kb/s Nominal bit rate : 6 000 kb/s Width : 1 280 pixels Height : 688 pixels Display aspect ratio : 1.85:1 Frame rate mode : Constant Frame rate : 23.976 (24000/1001) FPS Color space : YUV Chroma subsampling : 4:2:0 Bit depth : 8 bits Scan type : Progressive Bits/(Pixel*Frame) : 0.128 Stream size : 2.07 GiB (72%) Title : -=DoMiNo=- Language : English Default : Yes Forced : No Color range : Limited Color primaries : BT.709 Transfer characteristics : BT.709 Matrix coefficients : BT.709 Audio #1 ID : 2 Format : AC-3 Format/Info : Audio Coding 3 Commercial name : Dolby Digital Codec ID : A_AC3 Duration : 1 h 49 min Bit rate mode : Constant Bit rate : 384 kb/s Channel(s) : 6 channels Channel layout : L R C LFE Ls Rs Sampling rate : 48.0 kHz Frame rate : 31.250 FPS (1536 SPF) Compression mode : Lossy Stream size : 301 MiB (10%) Title : MVO -TVShows Language : Russian Service kind : Complete Main Default : Yes Forced : No Dialog Normalization : -31 dB cmixlev : -4.5 dB surmixlev : -6 dB dialnorm_Average : -31 dB dialnorm_Minimum : -31 dB dialnorm_Maximum : -31 dB Audio #2 ID : 3 Format : E-AC-3 Format/Info : Enhanced AC-3 Commercial name : Dolby Digital Plus Codec ID : A_EAC3 Duration : 1 h 49 min Bit rate mode : Constant Bit rate : 640 kb/s Channel(s) : 6 channels Channel layout : L R C LFE Ls Rs Sampling rate : 48.0 kHz Frame rate : 31.250 FPS (1536 SPF) Compression mode : Lossy Stream size : 502 MiB (17%) Language : English Service kind : Complete Main Default : No Forced : No Dialog Normalization : -31 dB compr : -0.28 dB dialnorm_Average : -31 dB dialnorm_Minimum : -31 dB dialnorm_Maximum : -31 dB Text #1 ID : 4 Format : UTF-8 Codec ID : S_TEXT/UTF8 Codec ID/Info : UTF-8 Plain Text Duration : 1 h 47 min Bit rate : 42 b/s Frame rate : 0.192 FPS Count of elements : 1234 Stream size : 33.0 KiB (0%) Language : English Default : No Forced : No Text #2 ID : 5 Format : UTF-8 Codec ID : S_TEXT/UTF8 Codec ID/Info : UTF-8 Plain Text Duration : 1 h 49 min Bit rate : 53 b/s Frame rate : 0.241 FPS Count of elements : 1588 Stream size : 42.7 KiB (0%) Title : SDH Language : English Default : No Forced : No Menu 00:00:00.000 : en:Scene 01 01:44:12.000 : en:End Credits
Релиз: Присоединяйся к: Кликай на баннеры.

Всего файлов в раздаче: 1 
Club.Zero.2023.AMZN.WEB-DL.720p.x264.seleZen.mkv2.85 GB

Похожие раздачи по запросу - Клуб
2024-06-01 magnet Клуб «Завтрак» / The Breakfast Club (1985) HDRip-AVC от DoMiNo | P | 30th Anniversary Edition 744.64 MB ↑ 0 ↓ 0
2024-05-29 magnet Клуб Зеро / Club Zero (2023) WEB-DLRip от New-Team | P | TVShows 1.46 GB ↑ 0 ↓ 0
2024-05-29 magnet Клуб Зеро / Club Zero (2023) WEB-DL 1080p | P | TVShows 6.30 GB ↑ 0 ↓ 0
2024-05-25 magnet Смешанные единоборства. Бойцовский клуб РЕН ТВ. Вячеслав Дацик vs. Шон Тернер [24.05] (2024) WEBRip 720p 4.16 GB ↑ 0 ↓ 0
2024-05-25 magnet Серия - «Клуб классического детектива» [9 книг] (2019-2022) FB2 27.44 MB ↑ 0 ↓ 0
2023-09-12 magnet Сергей Оксанин - Клуб самоубийц (2023) MP3 392.36 MB ↑ 0 ↓ 0
2023-09-11 magnet Клуб «Shortbus» / Shortbus (2006) HDRip 746.90 MB ↑ 1 ↓ 0

Комментарии


Зарегистрируйтесь чтобы добавить комментарий
Торрент клиент
byTorrent - программа для загрузки торрент-файлов.

Скачать byTorrent.exe (1,5 МБ)

Скачать byTorrent.zip (0,6 МБ)

Поддержи torrent.by
российских рублей
(300 российских рублей это 4$)

Обратная связь rss

End game ©