↑↓torrent.by
Поиск
Логин:  Регистрация
Пароль:

Леттеркенни / Letterkenny [S02] (2016) WEBRip 1080p | Jaskier

download Скачать торрент-файл   magnet Магнитная ссылка Размер: 7.67 GB Добавлен: 2024-05-29 17:00
Пиры будут получены из сети DHT
Последний сидер был замечен 2024-06-07 18:57
Название: Леттеркенни Оригинальное название: Letterkenny Год выхода: 2016 Производство: Канада / New Metric Media Жанр: Комедия Перевод: Профессиональный многоголосый Продолжительность: 07х ~00:25:00 Режиссёры: Джейкоб Тирни, Тео Ким, Спенсер Мэйби В ролях: Джаред Кисо, Нэйтан Дэйлз, Мишель Майлетт, Эндрю Херр, К. Тревор Уилсон, Дилан Плэйфейр, Тайлер Джонстон, Ивэн Штерн, Лиза Кодрингтон Описание: В центре сюжета - Уэйн и его приятель Дэрил. Они живут на своей ферме в небольшом городке Леттеркенни, что в провинции Онтарио, и намерены защищать свой сельский мир от надвигающейся урбанизации. Всё население Леттеркенни можно условно поделить на три группы: панки, хоккеисты и простые работяги. Все эти группы постоянно не в ладах друг с другом, и зачастую это приводит к нелепым ситуациям и даже к рукоприкладству. Формат: MKV Качество: WEBRip 1080p Видео: MPEG4 AVC / ~4762 kbps / 1920x1080 / 0.096 Бит/(Пиксели*Кадры) / 23.976 fps Аудио 01: AAC, 2 ch, 105 kbps | Русский, MVO | Jaskier | 18+ Аудио 02: AAC, 6 ch, 64 kbps | Original | Субтитры: Английские
[+] MediainfoFormat : Matroska Format version : Version 4 File size : 899 MiB Duration : 25 min 28 s Overall bit rate : 4 934 kb/s Encoded date : UTC 2023-04-10 01:32:53 Writing application : mkvmerge v51.0.0 ('I Wish') 64-bit Writing library : libebml v1.4.0 + libmatroska v1.6.2 Video ID : 1 Format : AVC Format/Info : Advanced Video Codec Format profile : High@L4 Format settings : CABAC / 4 Ref Frames Format settings, CABAC : Yes Format settings, Reference frames : 4 frames Codec ID : V_MPEG4/ISO/AVC Duration : 25 min 28 s Bit rate : 4 762 kb/s Width : 1 920 pixels Height : 1 080 pixels Display aspect ratio : 16:9 Frame rate mode : Constant Frame rate : 23.976 (24000/1001) FPS Color space : YUV Chroma subsampling : 4:2:0 Bit depth : 8 bits Scan type : Progressive Bits/(Pixel*Frame) : 0.096 Stream size : 868 MiB (97%) Default : Yes Forced : No Audio #1 ID : 2 Format : AAC LC Format/Info : Advanced Audio Codec Low Complexity Codec ID : A_AAC-2 Duration : 25 min 28 s Bit rate : 105 kb/s Channel(s) : 2 channels Channel layout : L R Sampling rate : 48.0 kHz Frame rate : 46.875 FPS (1024 SPF) Compression mode : Lossy Stream size : 19.2 MiB (2%) Language : Russian Default : Yes Forced : No Audio #2 ID : 3 Format : AAC LC SBR Format/Info : Advanced Audio Codec Low Complexity with Spectral Band Replication Commercial name : HE-AAC Format settings : Explicit Codec ID : A_AAC-2 Duration : 25 min 28 s Bit rate : 64.0 kb/s Channel(s) : 2 channels Channel layout : L R Sampling rate : 48.0 kHz Frame rate : 23.438 FPS (2048 SPF) Compression mode : Lossy Stream size : 11.7 MiB (1%) Language : English Default : No Forced : No Text ID : 4 Format : UTF-8 Codec ID : S_TEXT/UTF8 Codec ID/Info : UTF-8 Plain Text Duration : 24 min 19 s Bit rate : 114 b/s Frame rate : 0.449 FPS Count of elements : 656 Stream size : 20.4 KiB (0%) Language : English Default : No Forced : No Menu 00:00:00.000 : en:Chapter 1 00:08:46.250 : en:Chapter 2 00:15:47.375 : en:Chapter 3 00:22:18.166 : en:Chapter 4
[+] Скриншоты

Всего файлов в раздаче: 7 
Letterkenny.S02E01.A.Fuss.At.The.Ag.Hall.1080p.HULU.WEB-DL.AAC2.0.H.264-NTb.mkv899.24 MB
Letterkenny.S02E02.The.Election.1080p.HULU.WEB-DL.AAC2.0.H.264-NTb.mkv960.59 MB
Letterkenny.S02E03.Relationships.1080p.HULU.WEB-DL.AAC2.0.H.264-NTb.mkv1.13 GB
Letterkenny.S02E04.The.Native.Flu.1080p.HULU.WEB-DL.AAC2.0.H.264-NTb.mkv1.01 GB
Letterkenny.S02E05.Uncle.Eddies.Trust.1080p.HULU.WEB-DL.AAC2.0.H.264-NTb.mkv1.16 GB
Letterkenny.S02E06.Finding.Stormy.A.Stud.1080p.HULU.WEB-DL.AAC2.0.H.264-NTb.mkv1.04 GB
Letterkenny.S02E07.St.Perfects.Day.1080p.CRAV.WEBRip.AAC2.0.x264-BTW.mkv1.52 GB

Похожие раздачи по запросу - Леттеркенни
2024-06-03 magnet Леттеркенни / Letterkenny [S12] (2023) WEB-DL 1080p | Jaskier 5.55 GB ↑ 0 ↓ 0
2024-06-02 magnet Леттеркенни / Letterkenny [S10] (2021) WEBRip 1080p | Jaskier 6.01 GB ↑ 0 ↓ 0
2024-06-02 magnet Леттеркенни / Letterkenny [S11] (2022) WEBRip 1080p | Jaskier 5.47 GB ↑ 0 ↓ 0
2024-06-02 magnet Леттеркенни / Letterkenny [S07] (2019) WEBRip 1080p | Jaskier 4.13 GB ↑ 0 ↓ 0
2024-06-02 magnet Леттеркенни / Letterkenny [S08] (2019) WEBRip 1080p | Jaskier 6.30 GB ↑ 0 ↓ 0
2024-06-02 magnet Леттеркенни / Letterkenny [S09] (2020) WEBRip 1080p | Jaskier 4.58 GB ↑ 0 ↓ 0
2024-05-31 magnet Леттеркенни / Letterkenny [S06] (2018) WEBRip 1080p | Jaskier 6.56 GB ↑ 0 ↓ 0

Кто качает (только для создателя раздачи и модераторов): Локальные пиры отсутствуют

Комментарии


Зарегистрируйтесь чтобы добавить комментарий
Торрент клиент
byTorrent - программа для загрузки торрент-файлов.

Скачать byTorrent.exe (1,5 МБ)

Скачать byTorrent.zip (0,6 МБ)

Поддержи torrent.by
российских рублей
(300 российских рублей это 4$)

Обратная связь rss

End game ©