↑↓torrent.by
Поиск
Логин:  Регистрация
Пароль:

Emel - Mra [24-bit Hi-Res] (2024) FLAC

download Скачать торрент-файл   magnet Магнитная ссылка Размер: 885.23 MB Добавлен: 2024-05-30 05:00
Пиры будут получены из сети DHT
Последний сидер был замечен 2024-05-31 21:42
Название: Mra Исполнитель: Emel Год: 2024 Жанр: Pop Издатель (лейбл): Yotanka Records Продолжительность: 00:42:53 Формат/Кодек: FLAC Тип рипа: Tracks Битрейт аудио: Lossless Разрядность: 24 Bit/96 kHz
[+] Трек-лист 01. Massive Will (00:03:36) 02. Nar (feat. Ami Yerewolo) (00:03:18) 03. L’amour (feat. Justina) (00:04:05) 04. Lose My Mind (feat. Nayomi) (00:04:05) 05. Souty (00:03:17) 06. Mazel (feat. Cam‚lia Jordana) (00:04:10) 07. Tmannit (00:03:36) 08. I'll Leave (00:04:02) 09. Idha (feat. Eva Alordiah) (00:03:48) 10. Pride (00:04:05) 11. Rise (00:03:10) 12. Nar Ii (00:01:41)
[+] DRM foobar2000 1.5.5 / Замер динамического диапазона (DR) 1.1.1 ------------------------------------------------------------------------------- Анализ: Emel / Mra -------------------------------------------------------------------------------- DR Пики RMS Продолжительность трека -------------------------------------------------------------------------------- DR3 -0.30 дБ -5.85 дБ 3:36 01-Massive Will DR3 -0.30 дБ -4.98 дБ 3:18 02-Nar DR5 -0.30 дБ -7.39 дБ 4:05 03-L'amour DR6 -0.30 дБ -8.11 дБ 4:05 04-Lose My Mind DR4 -0.30 дБ -6.66 дБ 3:17 05-Souty DR7 -0.30 дБ -10.49 дБ 4:10 06-Mazel DR4 -0.30 дБ -5.61 дБ 3:36 07-Tmannit DR3 -0.30 дБ -5.38 дБ 4:02 08-I'll Leave DR5 -0.30 дБ -6.93 дБ 3:48 09-Idha DR4 -0.30 дБ -6.02 дБ 4:05 10-Pride DR5 -0.30 дБ -7.19 дБ 3:10 11-Rise DR6 -0.30 дБ -8.15 дБ 1:41 12-Nar Ii -------------------------------------------------------------------------------- Количество треков: 12 Реальные значения DR: DR4 Частота: 96000 Гц Каналов: 2 Разрядность: 24 Битрейт: 2955 кбит/с Кодек: FLAC ================================================================================
Время раздачи: 24/7 (минимум до появления первых 3-5 скачавших, на раздачи не возвращаюсь) Первое правило участника файлообмена: "Скачал сам - дай скачать другому!"

Всего файлов в раздаче: 13 
01. Massive Will.flac76.97 MB
02. Nar.flac69.77 MB
03. L'amour.flac84.98 MB
04. Lose My Mind.flac81.09 MB
05. Souty.flac69.58 MB
06. Mazel.flac82.73 MB
07. Tmannit.flac73.08 MB
08. I'll Leave.flac81.31 MB
09. IDHA.flac77.57 MB
10. Pride.flac85.51 MB
Показать все файлы

Кто качает (только для создателя раздачи и модераторов): Локальные пиры отсутствуют

Комментарии


Зарегистрируйтесь чтобы добавить комментарий
Торрент клиент
byTorrent - программа для загрузки торрент-файлов.

Скачать byTorrent.exe (1,5 МБ)

Скачать byTorrent.zip (0,6 МБ)

Поддержи torrent.by
российских рублей
(300 российских рублей это 4$)

Обратная связь rss

End game ©