↑↓torrent.by
Поиск
Логин:  Регистрация
Пароль:

Eyedress - Vampire in Beverly Hills [24-bit Hi-Res] (2024) FLAC

download Скачать торрент-файл   magnet Магнитная ссылка Размер: 784.69 MB Добавлен: 2024-05-30 05:00
Пиры будут получены из сети DHT
Последний сидер был замечен 2024-05-31 21:42
Название: Vampire in Beverly Hills Исполнитель: Eyedress Год: 2024 Жанр: Psychedelic-Pop, Indie-Rock Издатель (лейбл): RCA Records Label Продолжительность: 01:19:15 Формат/Кодек: FLAC Тип рипа: Tracks Битрейт аудио: Lossless Разрядность: 24 Bit/44,1 kHz
[+] Трек-лист 01. Mrs. Valentine (00:02:27) 02. Changing Faces (00:01:55) 03. How It All Starts (00:03:09) 04. Okanagan Lake (00:03:00) 05. Lover's Lane (00:02:02) 06. My Time (00:02:06) 07. Once Upon A Time (00:02:15) 08. Tears In The Rain (00:02:24) 09. Goons Will Be Goons (00:02:17) 10. War Crimes (00:02:22) 11. It's All In Your Head (00:02:51) 12. A World Without You (00:01:55) 13. Don't Tell Me How To Live My Life (00:02:10) 14. Make Up Or Break Up (00:02:09) 15. Sci-Fi Fantasy (00:01:44) 16. Secret Admirer (00:02:30) 17. Fake Friend (00:01:48) 18. Skater Dater (00:02:35) 19. Birkin (00:03:01) 20. Gone In A Heartbeat (00:02:26) 21. Pepe's Night Out (00:01:30) 22. I'm Not The Feds (00:01:22) 23. Waitin In The Ride (00:01:59) 24. I Still Want Your Love (00:01:57) 25. Only Got So Much Time (00:02:04) 26. Never Fuct With You (00:03:53) 27. It Girl (00:02:07) 28. Stay Alive (00:01:46) 29. Sinning In Heaven (00:03:48) 30. I Miss My Poppa (00:01:33) 31. Ofw (00:01:49) 32. Halloween Beach (00:02:33) 33. Vampire In Beverly Hills (00:01:44) 34. Only Blue (00:04:04)
[+] DRM foobar2000 1.5.5 / Замер динамического диапазона (DR) 1.1.1 ------------------------------------------------------------------------------- Анализ: Eyedress / Vampire In Beverly Hills -------------------------------------------------------------------------------- DR Пики RMS Продолжительность трека -------------------------------------------------------------------------------- DR9 -8.00 дБ -18.53 дБ 2:27 01-Mrs. Valentine DR10 -8.00 дБ -19.04 дБ 1:55 02-Changing Faces DR11 -8.00 дБ -19.94 дБ 3:09 03-How It All Starts DR12 -8.00 дБ -20.96 дБ 3:00 04-Okanagan Lake DR9 -8.00 дБ -18.52 дБ 2:02 05-Lover's Lane DR11 -8.15 дБ -20.26 дБ 2:06 06-My Time DR10 -8.00 дБ -19.03 дБ 2:15 07-Once Upon A Time DR11 -8.00 дБ -20.82 дБ 2:24 08-Tears In The Rain DR10 -8.00 дБ -19.34 дБ 2:17 09-Goons Will Be Goons DR11 -8.00 дБ -19.67 дБ 2:22 10-War Crimes DR10 -8.00 дБ -18.79 дБ 2:51 11-It's All In Your Head DR9 -8.00 дБ -19.02 дБ 1:55 12-A World Without You DR9 -8.00 дБ -18.03 дБ 2:10 13-Don't Tell Me How To Live My Life DR9 -8.00 дБ -19.20 дБ 2:09 14-Make Up Or Break Up DR10 -8.00 дБ -19.27 дБ 1:44 15-Sci-Fi Fantasy DR10 -8.00 дБ -19.16 дБ 2:30 16-Secret Admirer DR9 -8.00 дБ -18.25 дБ 1:48 17-Fake Friend DR9 -8.00 дБ -18.51 дБ 2:35 18-Skater Dater DR10 -8.00 дБ -19.48 дБ 3:01 19-Birkin DR9 -8.00 дБ -17.68 дБ 2:26 20-Gone In A Heartbeat DR11 -8.00 дБ -20.62 дБ 1:30 21-Pepe's Night Out DR10 -8.24 дБ -21.14 дБ 1:22 22-I'm Not The Feds DR9 -8.00 дБ -19.11 дБ 1:59 23-Waitin In The Ride DR10 -8.00 дБ -19.34 дБ 1:57 24-I Still Want Your Love DR10 -8.00 дБ -19.00 дБ 2:04 25-Only Got So Much Time DR11 -8.00 дБ -20.05 дБ 3:53 26-Never Fuct With You DR9 -8.00 дБ -18.87 дБ 2:07 27-It Girl DR11 -8.00 дБ -20.28 дБ 1:46 28-Stay Alive DR10 -8.00 дБ -19.06 дБ 3:48 29-Sinning In Heaven DR9 -8.00 дБ -18.70 дБ 1:33 30-I Miss My Poppa DR9 -8.00 дБ -18.73 дБ 1:49 31-Ofw DR9 -8.00 дБ -18.89 дБ 2:33 32-Halloween Beach DR10 -8.00 дБ -19.65 дБ 1:44 33-Vampire In Beverly Hills DR9 -8.00 дБ -20.19 дБ 4:04 34-Only Blue -------------------------------------------------------------------------------- Количество треков: 34 Реальные значения DR: DR10 Частота: 44100 Гц Каналов: 2 Разрядность: 24 Битрейт: 1274 кбит/с Кодек: FLAC ================================================================================
Время раздачи: 24/7 (минимум до появления первых 3-5 скачавших, на раздачи не возвращаюсь) Первое правило участника файлообмена: "Скачал сам - дай скачать другому!"

Всего файлов в раздаче: 35 
01. Mrs. Valentine.flac24.53 MB
02. Changing Faces.flac19.68 MB
03. How It All Starts.flac31.14 MB
04. Okanagan Lake.flac31.40 MB
05. Lover's Lane.flac22.03 MB
06. My Time.flac21.07 MB
07. Once Upon A Time.flac22.73 MB
08. Tears In The Rain.flac23.33 MB
09. Goons Will Be Goons.flac21.53 MB
10. War Crimes.flac24.75 MB
Показать все файлы

Комментарии


Зарегистрируйтесь чтобы добавить комментарий
Торрент клиент
byTorrent - программа для загрузки торрент-файлов.

Скачать byTorrent.exe (1,5 МБ)

Скачать byTorrent.zip (0,6 МБ)

Поддержи torrent.by
российских рублей
(300 российских рублей это 4$)

Обратная связь rss

End game ©