↑↓torrent.by
Поиск
Логин:  Регистрация
Пароль:

Моя прекрасная леди / My Fair Lady (1964) BDRip-HEVC 1080p от RIPS CLUB | P, P1, A, L1 | Paramount Pictures Remastered

download Скачать торрент-файл   magnet Магнитная ссылка Размер: 17.66 GB Добавлен: 2024-05-30 05:00
Пиры будут получены из сети DHT
Последний сидер был замечен 2024-05-30 05:00
Название: Моя прекрасная леди Оригинальное название: My Fair Lady Год производства: 1964 Производство: США / Warner Bros. Жанр: мюзикл, драма, мелодрама Режиссёр: Джордж Кьюкор В ролях: Одри Хепберн, Рекс Харрисон, Стэнли Холлоуэй, Уилфрид Хайд-Уайт, Глэдис Купер, Джереми Бретт, Теодор Бикел, Мона Уошборн, Изобел Элсом, Джон Холлэнд О фильме: Знаменитый профессор Генри Хиггинс заключает пари со своим другом, что сможет обучить безграмотную замарашку, уличную цветочницу Элизу, правильной речи и высокосветским манерам и выдать её за настоящую леди. Продолжительность: 02:53:04 Перевод: многоголосый профессиональный, одноголосый профессиональный, авторский, любительский одноголосый Качество: BDRip-HEVC 1080p Кодек: HEVC (x265) Видео: 1920x872, ~9403 Kbps, HEVC (Main10@L.4.1@High) 10 бит Звук: Аудио1: AC3, 6 ch, 640 Kbps - Русский, MVO (DVD Магия) Аудио2: AC3, 6 ch, 640 Kbps - Русский, MVO (Film Prestige) Аудио3: AC3, 2 ch, 192 Kbps - Русский, MVO (РТР / Фильм-Экспорт) Аудио4: AC3, 2 ch, 192 Kbps - Русский, MVO (ДТВ) Аудио5: AC3, 2 ch, 192 Kbps - Русский, MVO (НТВ+ по заказу НТВ) Аудио6: AC3, 2 ch, 192 Kbps - Русский, MVO (Премьер Видео Фильм) Аудио7: AC3, 2 ch, 192 Kbps - Русский, VO (Николай Александрович, Мосфильм) Аудио8: AC3, 6 ch, 640 Kbps - Русский, AVO (Юрий Живов) Аудио9: AC3, 6 ch, 640 Kbps - Русский, AVO (Юрий Сербин) Аудио10: AC3, 6 ch, 640 Kbps - Русский, AVO (Григорий Либергал) Аудио11: AC3, 2 ch, 192 Kbps - Русский, VO Аудио12: AC3, 6 ch, 640 Kbps - Английский Аудио13: AC3, 2 ch, 192 Kbps - Английский with Audrey Hepburn Songs (0:14:44-0:19:06, 2:09:06-2:11:43) Субтитры: русские (full, forced), английские (SDH) Навигация по главам: Есть
[+] Лог (x265 info) + Mediainfo x265 : frame I: 1039, Avg QP:18.03 kb/s: 26846.15 x265 : frame P: 43109, Avg QP:19.36 kb/s: 17841.60 x265 : frame B: 204828, Avg QP:21.72 kb/s: 7537.91 x265 : Weighted P-Frames: Y:4.3% UV:3.6% x265 : Weighted B-Frames: Y:2.2% UV:1.6% x265 : encoded 248976 frames in 162082.17s (1.54 fps), 9402.52 kb/s, Avg QP:21.30 Общее Уникальный идентификатор : 224570607185816352351730255116696371770 (0xA8F2B9C787B8EDC57755B5B41035423A) Полное имя : .Моя.прекрасная.леди.My.Fair.Lady.1964.Paramount.Pictures.Remastered.BDRip-HEVC.1080p.mkv Формат : Matroska Версия формата : Version 4 Размер файла : 17,7 Гбайт Продолжительность : 2 ч. 53 мин. Общий битрейт : 14,6 Мбит/сек Частота кадров : 23,976 кадра/сек Название фильма : Моя прекрасная леди / Моя прекрасная леди Кодирование выполнил : OldGamer Тип содержимого : Movie Дата выпуска : 1964-10-21 Дата записи : 1964-10-21 Программа кодирования : mkvmerge v83.0 ('Circle Of Friends') 64-bit Библиотека кодирования : libebml v1.4.5 + libmatroska v1.7.1 / xvid4psp5 Обложка : Yes Attachments : cover.jpg ACTOR : Audrey Hepburn, Rex Harrison, Stanley Holloway, Wilfrid Hyde-White, Gladys Cooper, Jeremy Brett, Theodore Bikel, Mona Washbourne, Isobel Elsom, John Holland, Colin Kenny, Bert Stevens, Frank Baker, Marjorie Bennett, Betty Blythe, Arthur Tovey, Marni ... ARTIST : Audrey Hepburn, Rex Harrison, Stanley Holloway, Wilfrid Hyde-White, Gladys Cooper, Jeremy Brett, Theodore Bikel, Mona Washbourne, Isobel Elsom, John Holland, Colin Kenny, Bert Stevens, Frank Baker, Marjorie Bennett, Betty Blythe, Arthur Tovey, Marni ... DIRECTOR : George Cukor GENRE : музыка, комедия, мелодрама, драма LAW_RATING : G PRODUCER : James C. Katz, Jack L. Warner PRODUCTION_STUDIO : Warner Bros. Pictures RATING : G SCREENPLAY_BY : Alan Jay Lerner SYNOPSIS : Знаменитый профессор Генри Хиггинс заключает пари со своим другом, что сможет обучить безграмотную замарашку, уличную цветочницу Элизу правильной речи и высокосветским манерам и выдать её за настоящую леди. Искромётный юмор, забавные ситуации, Золушка на глазах у зрителей превращается в принцессу, а убеждённый холостяк — во влюблённого. WRITTEN_BY : Alan Jay Lerner Видео Идентификатор : 1 Формат : HEVC Формат/Информация : High Efficiency Video Coding Профиль формата : Main 10@L4.1@High Идентификатор кодека : V_MPEGH/ISO/HEVC Продолжительность : 2 ч. 53 мин. Битрейт : 9 403 Кбит/сек Ширина : 1 920 пикселей Высота : 872 пикселя Соотношение сторон дисплея : 2,2:1 Режим частоты кадров : Постоянный Частота кадров : 23,976 (24000/1001) кадра/сек Цветовое пространство : YUV Цветовая субдискретизация : 4:2:0 Битовая глубина : 10 бит Бит/(Пиксели*Кадры) : 0.234 Размер потока : 11,4 Гбайт (64%) Заголовок : My Fair Lady / Rip by OldGamer Библиотека кодирования : x265 3.6+12-f3c5fbaff: 10bit Параметры библиотеки кодирования : cpuid=1111039 / frame-threads=4 / numa-pools=16 / wpp / no-pmode / no-pme / no-psnr / no-ssim / log-level=2 / input-csp=1 / input-res=1920x872 / interlace=0 / total-frames=248976 / level-idc=41 / high-tier=1 / uhd-bd=0 / ref=5 / no-allow-non-conformance / no-repeat-headers / annexb / no-aud / no-eob / no-eos / no-hrd / info / hash=0 / temporal-layers=0 / open-gop / min-keyint=23 / keyint=240 / gop-lookahead=0 / bframes=16 / b-adapt=2 / b-pyramid / bframe-bias=0 / rc-lookahead=40 / lookahead-slices=0 / scenecut=40 / no-hist-scenecut / radl=0 / no-splice / no-intra-refresh / ctu=32 / min-cu-size=8 / rect / amp / max-tu-size=32 / tu-inter-depth=4 / tu-intra-depth=4 / limit-tu=1 / rdoq-level=2 / dynamic-rd=0.00 / no-ssim-rd / signhide / no-tskip / nr-intra=0 / nr-inter=0 / no-constrained-intra / no-strong-intra-smoothing / max-merge=5 / limit-refs=3 / no-limit-modes / me=3 / subme=7 / merange=57 / temporal-mvp / no-frame-dup / no-hme / weightp / weightb / no-analyze-src-pics / deblock=-2:-2 / no-sao / no-sao-non-deblock / rd=6 / selective-sao=0 / no-early-skip / no-rskip / no-fast-intra / no-tskip-fast / no-cu-lossless / b-intra / no-splitrd-skip / rdpenalty=0 / psy-rd=2.00 / psy-rdoq=1.00 / no-rd-refine / no-lossless / cbqpoffs=0 / crqpoffs=0 / rc=crf / crf=19.3 / qcomp=0.60 / qpstep=4 / stats-write=0 / stats-read=0 / vbv-maxrate=50000 / vbv-bufsize=50000 / vbv-init=0.9 / min-vbv-fullness=50.0 / max-vbv-fullness=80.0 / crf-max=0.0 / crf-min=0.0 / ipratio=1.40 / pbratio=1.30 / aq-mode=1 / aq-strength=1.00 / no-cutree / zone-count=1 / zones: / start-frame=247069 / end-frame=248977 / qp=36 / no-strict-cbr / qg-size=32 / no-rc-grain / qpmax=69 / qpmin=0 / no-const-vbv / sar=1 / overscan=0 / videoformat=5 / range=0 / colorprim=2 / transfer=2 / colormatrix=2 / chromaloc=0 / display-window=0 / cll=0,0 / min-luma=0 / max-luma=1023 / log2-max-poc-lsb=8 / vui-timing-info / vui-hrd-info / slices=1 / no-opt-qp-pps / no-opt-ref-list-length-pps / no-multi-pass-opt-rps / scenecut-bias=0.00 / no-opt-cu-delta-qp / no-aq-motion / no-hdr10 / no-hdr10-opt / no-dhdr10-opt / no-idr-recovery-sei / analysis-reuse-level=0 / analysis-save-reuse-level=0 / analysis-load-reuse-level=0 / scale-factor=0 / refine-intra=0 / refine-inter=0 / refine-mv=1 / refine-ctu-distortion=0 / no-limit-sao / ctu-info=0 / no-lowpass-dct / refine-analysis-type=0 / copy-pic=1 / max-ausize-factor=1.0 / no-dynamic-refine / no-single-sei / no-hevc-aq / no-svt / no-field / qp-adaptation-range=1.00 / scenecut-aware-qp=0conformance-window-offsets / right=0 / bottom=0 / decoder-max-rate=0 / no-vbv-live-multi-pass / no-mcstf / no-sbrc Язык : Английский По умолчанию : Да Принудительно : Нет Аудио #1 Идентификатор : 2 Формат : AC-3 Формат/Информация : Audio Coding 3 Коммерческое название : Dolby Digital Идентификатор кодека : A_AC3 Продолжительность : 2 ч. 53 мин. Вид битрейта : Постоянный Битрейт : 640 Кбит/сек Канал(-ы) : 6 каналов Расположение каналов : L R C LFE Ls Rs Частота дискретизации : 48,0 КГц Частота кадров : 31,250 кадров/сек (1536 SPF) Метод сжатия : С потерями Размер потока : 792 Мбайт (4%) Заголовок : MVO (DVD Магия) Язык : Русский Вид сервиса : Complete Main По умолчанию : Да Принудительно : Нет Нормализация звука речи : -27 dB compr : -0.28 dB cmixlev : -3.0 dB surmixlev : -3 dB mixlevel : 285 dB roomtyp : Small dialnorm_Average : -27 dB dialnorm_Minimum : -27 dB dialnorm_Maximum : -27 dB Аудио #2 Идентификатор : 3 Формат : AC-3 Формат/Информация : Audio Coding 3 Коммерческое название : Dolby Digital Идентификатор кодека : A_AC3 Продолжительность : 2 ч. 53 мин. Вид битрейта : Постоянный Битрейт : 640 Кбит/сек Канал(-ы) : 6 каналов Расположение каналов : L R C LFE Ls Rs Частота дискретизации : 48,0 КГц Частота кадров : 31,250 кадров/сек (1536 SPF) Метод сжатия : С потерями Размер потока : 792 Мбайт (4%) Заголовок : MVO (Film Prestige) Язык : Русский Вид сервиса : Complete Main По умолчанию : Нет Принудительно : Нет Нормализация звука речи : -27 dB compr : -0.28 dB cmixlev : -3.0 dB surmixlev : -3 dB mixlevel : 285 dB roomtyp : Small dialnorm_Average : -27 dB dialnorm_Minimum : -27 dB dialnorm_Maximum : -27 dB Аудио #3 Идентификатор : 4 Формат : AC-3 Формат/Информация : Audio Coding 3 Коммерческое название : Dolby Digital Идентификатор кодека : A_AC3 Продолжительность : 2 ч. 53 мин. Вид битрейта : Постоянный Битрейт : 192 Кбит/сек Канал(-ы) : 2 канала Расположение каналов : L R Частота дискретизации : 48,0 КГц Частота кадров : 31,250 кадров/сек (1536 SPF) Метод сжатия : С потерями Размер потока : 238 Мбайт (1%) Заголовок : MVO (РТР / Фильм-Экспорт) Язык : Русский Вид сервиса : Complete Main По умолчанию : Нет Принудительно : Нет Нормализация звука речи : -31 dB compr : -11.02 dB dialnorm_Average : -31 dB dialnorm_Minimum : -31 dB dialnorm_Maximum : -31 dB Аудио #4 Идентификатор : 5 Формат : AC-3 Формат/Информация : Audio Coding 3 Коммерческое название : Dolby Digital Идентификатор кодека : A_AC3 Продолжительность : 2 ч. 53 мин. Вид битрейта : Постоянный Битрейт : 192 Кбит/сек Канал(-ы) : 2 канала Расположение каналов : L R Частота дискретизации : 48,0 КГц Частота кадров : 31,250 кадров/сек (1536 SPF) Метод сжатия : С потерями Размер потока : 238 Мбайт (1%) Заголовок : MVO (ДТВ) Язык : Русский Вид сервиса : Complete Main По умолчанию : Нет Принудительно : Нет Нормализация звука речи : -31 dB compr : -0.28 dB dsurmod : Not Dolby Surround encoded ltrtcmixlev : 3.0 dB ltrtsurmixlev : 3.0 dB lorocmixlev : 3.0 dB lorosurmixlev : 3.0 dB dialnorm_Average : -31 dB dialnorm_Minimum : -31 dB dialnorm_Maximum : -31 dB Аудио #5 Идентификатор : 6 Формат : AC-3 Формат/Информация : Audio Coding 3 Коммерческое название : Dolby Digital Идентификатор кодека : A_AC3 Продолжительность : 2 ч. 53 мин. Вид битрейта : Постоянный Битрейт : 192 Кбит/сек Канал(-ы) : 2 канала Расположение каналов : L R Частота дискретизации : 48,0 КГц Частота кадров : 31,250 кадров/сек (1536 SPF) Метод сжатия : С потерями Размер потока : 238 Мбайт (1%) Заголовок : MVO (НТВ+ по заказу НТВ) Язык : Русский Вид сервиса : Complete Main По умолчанию : Нет Принудительно : Нет Нормализация звука речи : -31 dB compr : -11.02 dB dialnorm_Average : -31 dB dialnorm_Minimum : -31 dB dialnorm_Maximum : -31 dB Аудио #6 Идентификатор : 7 Формат : AC-3 Формат/Информация : Audio Coding 3 Коммерческое название : Dolby Digital Идентификатор кодека : A_AC3 Продолжительность : 2 ч. 53 мин. Вид битрейта : Постоянный Битрейт : 192 Кбит/сек Канал(-ы) : 2 канала Расположение каналов : L R Частота дискретизации : 48,0 КГц Частота кадров : 31,250 кадров/сек (1536 SPF) Метод сжатия : С потерями Размер потока : 238 Мбайт (1%) Заголовок : MVO (Премьер Видео Фильм) Язык : Русский Вид сервиса : Complete Main По умолчанию : Нет Принудительно : Нет Нормализация звука речи : -31 dB compr : -0.28 dB dsurmod : Not Dolby Surround encoded ltrtcmixlev : 3.0 dB ltrtsurmixlev : 3.0 dB lorocmixlev : 3.0 dB lorosurmixlev : 3.0 dB dialnorm_Average : -31 dB dialnorm_Minimum : -31 dB dialnorm_Maximum : -31 dB Аудио #7 Идентификатор : 8 Формат : AC-3 Формат/Информация : Audio Coding 3 Коммерческое название : Dolby Digital Идентификатор кодека : A_AC3 Продолжительность : 2 ч. 53 мин. Вид битрейта : Постоянный Битрейт : 192 Кбит/сек Канал(-ы) : 2 канала Расположение каналов : L R Частота дискретизации : 48,0 КГц Частота кадров : 31,250 кадров/сек (1536 SPF) Метод сжатия : С потерями Размер потока : 238 Мбайт (1%) Заголовок : VO (Николай Александрович, Мосфильм) Язык : Русский Вид сервиса : Complete Main По умолчанию : Нет Принудительно : Нет Нормализация звука речи : -31 dB compr : -0.28 dB dsurmod : Not Dolby Surround encoded ltrtcmixlev : 3.0 dB ltrtsurmixlev : 3.0 dB lorocmixlev : 3.0 dB lorosurmixlev : 3.0 dB dialnorm_Average : -31 dB dialnorm_Minimum : -31 dB dialnorm_Maximum : -31 dB Аудио #8 Идентификатор : 9 Формат : AC-3 Формат/Информация : Audio Coding 3 Коммерческое название : Dolby Digital Идентификатор кодека : A_AC3 Продолжительность : 2 ч. 53 мин. Вид битрейта : Постоянный Битрейт : 640 Кбит/сек Канал(-ы) : 6 каналов Расположение каналов : L R C LFE Ls Rs Частота дискретизации : 48,0 КГц Частота кадров : 31,250 кадров/сек (1536 SPF) Метод сжатия : С потерями Размер потока : 792 Мбайт (4%) Заголовок : AVO (Юрий Живов) Язык : Русский Вид сервиса : Complete Main По умолчанию : Нет Принудительно : Нет Нормализация звука речи : -27 dB compr : -0.28 dB cmixlev : -3.0 dB surmixlev : -3 dB mixlevel : 285 dB roomtyp : Small dialnorm_Average : -27 dB dialnorm_Minimum : -27 dB dialnorm_Maximum : -27 dB Аудио #9 Идентификатор : 10 Формат : AC-3 Формат/Информация : Audio Coding 3 Коммерческое название : Dolby Digital Идентификатор кодека : A_AC3 Продолжительность : 2 ч. 53 мин. Вид битрейта : Постоянный Битрейт : 640 Кбит/сек Канал(-ы) : 6 каналов Расположение каналов : L R C LFE Ls Rs Частота дискретизации : 48,0 КГц Частота кадров : 31,250 кадров/сек (1536 SPF) Метод сжатия : С потерями Размер потока : 792 Мбайт (4%) Заголовок : AVO (Юрий Сербин) Язык : Русский Вид сервиса : Complete Main По умолчанию : Нет Принудительно : Нет Нормализация звука речи : -27 dB compr : -0.28 dB cmixlev : -3.0 dB surmixlev : -3 dB mixlevel : 285 dB roomtyp : Small dialnorm_Average : -27 dB dialnorm_Minimum : -27 dB dialnorm_Maximum : -27 dB Аудио #10 Идентификатор : 11 Формат : AC-3 Формат/Информация : Audio Coding 3 Коммерческое название : Dolby Digital Идентификатор кодека : A_AC3 Продолжительность : 2 ч. 53 мин. Вид битрейта : Постоянный Битрейт : 640 Кбит/сек Канал(-ы) : 6 каналов Расположение каналов : L R C LFE Ls Rs Частота дискретизации : 48,0 КГц Частота кадров : 31,250 кадров/сек (1536 SPF) Метод сжатия : С потерями Размер потока : 792 Мбайт (4%) Заголовок : AVO (Григорий Либергал) Язык : Русский Вид сервиса : Complete Main По умолчанию : Нет Принудительно : Нет Нормализация звука речи : -27 dB compr : -0.28 dB cmixlev : -3.0 dB surmixlev : -3 dB mixlevel : 285 dB roomtyp : Small dialnorm_Average : -27 dB dialnorm_Minimum : -27 dB dialnorm_Maximum : -27 dB Аудио #11 Идентификатор : 12 Формат : AC-3 Формат/Информация : Audio Coding 3 Коммерческое название : Dolby Digital Идентификатор кодека : A_AC3 Продолжительность : 2 ч. 53 мин. Вид битрейта : Постоянный Битрейт : 192 Кбит/сек Канал(-ы) : 2 канала Расположение каналов : L R Частота дискретизации : 48,0 КГц Частота кадров : 31,250 кадров/сек (1536 SPF) Метод сжатия : С потерями Размер потока : 238 Мбайт (1%) Заголовок : VO Язык : Русский Вид сервиса : Complete Main По умолчанию : Нет Принудительно : Нет Нормализация звука речи : -31 dB compr : -0.28 dB dsurmod : Not Dolby Surround encoded ltrtcmixlev : 3.0 dB ltrtsurmixlev : 3.0 dB lorocmixlev : 3.0 dB lorosurmixlev : 3.0 dB dialnorm_Average : -31 dB dialnorm_Minimum : -31 dB dialnorm_Maximum : -31 dB Аудио #12 Идентификатор : 13 Формат : AC-3 Формат/Информация : Audio Coding 3 Коммерческое название : Dolby Digital Идентификатор кодека : A_AC3 Продолжительность : 2 ч. 53 мин. Вид битрейта : Постоянный Битрейт : 640 Кбит/сек Канал(-ы) : 6 каналов Расположение каналов : L R C LFE Ls Rs Частота дискретизации : 48,0 КГц Частота кадров : 31,250 кадров/сек (1536 SPF) Метод сжатия : С потерями Размер потока : 792 Мбайт (4%) Заголовок : Original Язык : Английский Вид сервиса : Complete Main По умолчанию : Нет Принудительно : Нет Нормализация звука речи : -31 dB compr : -0.28 dB cmixlev : -3.0 dB surmixlev : -3 dB dmixmod : Lt/Rt ltrtcmixlev : -3.0 dB ltrtsurmixlev : -3.0 dB lorocmixlev : -3.0 dB lorosurmixlev : -3.0 dB dialnorm_Average : -31 dB dialnorm_Minimum : -31 dB dialnorm_Maximum : -31 dB Аудио #13 Идентификатор : 14 Формат : AC-3 Формат/Информация : Audio Coding 3 Коммерческое название : Dolby Digital Идентификатор кодека : A_AC3 Продолжительность : 2 ч. 53 мин. Вид битрейта : Постоянный Битрейт : 192 Кбит/сек Канал(-ы) : 2 канала Расположение каналов : L R Частота дискретизации : 48,0 КГц Частота кадров : 31,250 кадров/сек (1536 SPF) Метод сжатия : С потерями Размер потока : 238 Мбайт (1%) Заголовок : Original with Audrey Hepburn Songs (0:14:44-0:19:06, 2:09:06-2:11:43) Язык : Английский Вид сервиса : Complete Main По умолчанию : Нет Принудительно : Нет Нормализация звука речи : -31 dB compr : -0.28 dB dsurmod : Not Dolby Surround encoded ltrtcmixlev : 3.0 dB ltrtsurmixlev : 3.0 dB lorocmixlev : 3.0 dB lorosurmixlev : 3.0 dB dialnorm_Average : -31 dB dialnorm_Minimum : -31 dB dialnorm_Maximum : -31 dB Текст #1 Идентификатор : 15 Формат : UTF-8 Идентификатор кодека : S_TEXT/UTF8 Идентификатор кодека/Информация : UTF-8 Plain Text Продолжительность : 2 ч. 38 мин. Битрейт : 26 бит/сек Частота кадров : 0,066 кадр/сек Число элементов : 623 Размер потока : 30,3 КиБ (0%) Заголовок : Russian Forced Язык : Русский По умолчанию : Да Принудительно : Нет Текст #2 Идентификатор : 16 Формат : UTF-8 Идентификатор кодека : S_TEXT/UTF8 Идентификатор кодека/Информация : UTF-8 Plain Text Продолжительность : 2 ч. 50 мин. Битрейт : 104 бит/сек Частота кадров : 0,212 кадр/сек Число элементов : 2167 Размер потока : 130 КиБ (0%) Заголовок : Russian Full Язык : Русский По умолчанию : Нет Принудительно : Нет Текст #3 Идентификатор : 17 Формат : UTF-8 Идентификатор кодека : S_TEXT/UTF8 Идентификатор кодека/Информация : UTF-8 Plain Text Продолжительность : 2 ч. 47 мин. Битрейт : 78 бит/сек Частота кадров : 0,262 кадр/сек Число элементов : 2636 Размер потока : 96,2 КиБ (0%) Заголовок : English Full Язык : Английский По умолчанию : Нет Принудительно : Нет Текст #4 Идентификатор : 18 Формат : UTF-8 Идентификатор кодека : S_TEXT/UTF8 Идентификатор кодека/Информация : UTF-8 Plain Text Продолжительность : 2 ч. 47 мин. Битрейт : 85 бит/сек Частота кадров : 0,271 кадр/сек Число элементов : 2733 Размер потока : 106 КиБ (0%) Заголовок : English SDH Paramount Home Entertainment (2015) Язык : Бирманский По умолчанию : Нет Принудительно : Нет Текст #5 Идентификатор : 19 Формат : UTF-8 Идентификатор кодека : S_TEXT/UTF8 Идентификатор кодека/Информация : UTF-8 Plain Text Продолжительность : 2 ч. 47 мин. Битрейт : 81 бит/сек Частота кадров : 0,269 кадр/сек Число элементов : 2707 Размер потока : 101 КиБ (0%) Заголовок : English SDH Paramount Home Entertainment (2011) Язык : Английский По умолчанию : Нет Принудительно : Нет Меню 00:00:00.000 : en:Overture and Credits 00:03:32.170 : en:The Rain in Covent Garden 00:05:48.556 : en:Phonetics in Practice 00:10:16.991 : en:"Why Can't the English?" 00:12:52.271 : en:Higgins' Boast 00:14:49.972 : en:"Wouldn't It Be Loverly?" 00:19:07.563 : en:Not a Brass Farthing 00:24:11.658 : en:Something Better 00:26:12.070 : en:Negotiations 00:32:39.916 : en:And the Angels Will Weep 00:37:32.416 : en:Bath Time 00:40:34.723 : en:"I'm an Ordinary Man" 00:45:25.389 : en:"with a Little Bit of Luck" 00:50:43.665 : en:Gift of Rhetoric 00:55:15.687 : en:The Undeserving Poor 01:00:32.378 : en:"Just You Wait" 01:03:58.167 : en:As and Hs 01:06:28.442 : en:"Poor Professor Higgins" 01:11:14.395 : en:Pep Talk 01:13:41.917 : en:"the Rain in Spain" 01:17:06.038 : en:"I Could Have Danced All Night" 01:21:05.944 : en:"Acot Gavette" 01:24:36.279 : en:At the Races 01:26:17.213 : en:The New Small Talk 01:30:29.424 : en:Dovers Bloomin' Arse 01:33:55.588 : en:"on the Street Where You Live" 01:37:47.278 : en:The Girl Matters 01:40:12.005 : en:Dressed for the Ball 01:41:16.195 : en:Intermission 01:41:56.151 : en:Entr' Acte 01:43:10.225 : en:Zoltn Karpathy 01:44:51.702 : en:"the Embassy Waltz" 01:46:53.365 : en:Quite Charming 01:49:01.284 : en:Abuzz About Eliza 01:54:03.628 : en:"You Did It" 01:59:04.345 : en:What's To Become of Her? 02:06:16.151 : en:"Just You Wait" Reprise 02:07:46.659 : en:"on the Street Where You Live" Reprise 02:09:35.434 : en:"Show Me" 02:12:12.716 : en:"Wouldn't It Be Loverly?" Reprise 02:15:23.031 : en:Respectable! 02:19:06.254 : en:"Get Me to the Church on Time" 02:25:07.865 : en:Eliza's Bolted 02:27:20.039 : en:"a Hymm to Him" 02:32:12.665 : en:The Lady's Whereabouts 02:34:54.994 : en:Eliza's Future 02:39:05.744 : en:"Without You" 02:40:14.855 : en:"Iv'e Grown Accustomed to Her Face" 02:44:01.248 : en:Where the Devil? 02:51:45.753 : en:Exit Music/End Credits
[+] Скриншоты
Релиз от: OldGamer

Всего файлов в раздаче: 1 
Моя.прекрасная.леди.My.Fair.Lady.1964.Paramount.Pictures.Remastered.BDRip-HEVC.1080p.mkv17.66 GB

Похожие раздачи по запросу - Моя
2024-06-08 magnet Максим Гаусс - Моя крушить! (2024) МР3 485.62 MB ↑ 0 ↓ 0
2024-06-05 magnet Моя жена – киллер / Рольові ігри / Role Play (2023) WEB-DL 1080p | D | UKR 5.71 GB ↑ 0 ↓ 0
2024-06-01 magnet Моя подруга — демон / Suki demo Kirai na Amanojaku [Movie] (2024) WEBRip 1080p | AniBaza 4.04 GB ↑ 0 ↓ 0
2024-05-31 magnet Моя революция (2016) HDTVRip-AVC от Files-x 1К1.37 GB ↑ 0 ↓ 0
2024-05-30 magnet Где моя тачка, чувак? / Dude, where's my car? (2000) BDRip от HELLYWOOD 1.68 GB ↑ 0 ↓ 0
2024-05-29 magnet Где моя тачка, чувак? / Dude, Where's My Car? (2000) HDRip-AVC от DoMiNo | D 745.15 MB ↑ 0 ↓ 0
2024-05-20 magnet Антон Буткевич - Моя космическая станция 12. Финал Земли 2 (2024) МР3 508.95 MB ↑ 0 ↓ 0

Комментарии


Зарегистрируйтесь чтобы добавить комментарий
Торрент клиент
byTorrent - программа для загрузки торрент-файлов.

Скачать byTorrent.exe (1,5 МБ)

Скачать byTorrent.zip (0,6 МБ)

Поддержи torrent.by
российских рублей
(300 российских рублей это 4$)

Обратная связь rss

End game ©