↑↓torrent.by
Поиск
Логин:  Регистрация
Пароль:

Асфальтовые джунгли / Asphalt City (2023) BDRip 720p от DoMiNo & селезень | D, L | Soundmasters

download Скачать торрент-файл   magnet Магнитная ссылка Размер: 6.16 GB Добавлен: 2024-05-30 05:00
Пиры будут получены из сети DHT
Последний сидер был замечен 2024-06-17 21:25
Информация о фильме Название: Асфальтовые джунгли Оригинальное название: Asphalt City Год выпуска: 2023 Жанр: триллер, драма Режиссер: Жан-Стефан Совер / Jean-Stéphane Sauvaire В ролях: Тай Шеридан, Шон Пенн, Гбенга Акиннагбе, Майкл Питт, Кэтрин Уотерстон, Майк Тайсон, Ракель Нив, Кали Рейс, Рамон Алеман, Джаган Бэдуэлл О фильме: История врача и его первого года на работе в середине 90-х в Гарлеме. Это взгляд изнутри на уличную жизнь: перестрелки, плохие копы, безнадежные пациенты, черный юмор в странных обстоятельствах и попытка одного медика сохранить свое желание помочь, несмотря на его растущую черствость. Выпущено: США, Sculptor Media, AZA Films, Force Majeure Продолжительность: 02:05:26 Перевод 1: Дублированный (неофициальный) | Soundmasters Перевод 2: Любительский (многоголосый, закадровый) | Soundmasters 18 + Субтитры: Английские Файл Формат: Matroska Качество: BDRip 720p | Исх.Asphalt.City.2023.1080p.GER.Blu-ray.AVC.DTS-HD.MA5.1-ARTiCUN0 Видео: 1280x536 at 23.976 fps, MPEG-4 AVC, ~5809 kbps Аудио 1: AC3, 2 ch, ~192 kbps - | Русский | | DUB Аудио 2: AC3, 6 ch, ~384 kbps - | Русский | | MVO Аудио 3: AC3, 6 ch, ~640 kbps - | Английский | | Original Формат субтитров: softsub (SRT)
[+] M/Ix264 : frame I:892 Avg QP:15.20 size: 81845 x264 : frame P:39705 Avg QP:16.61 size: 50334 x264 : frame B:139863 Avg QP:18.47 size: 24265 x264 : consecutive B-frames: 2.6% 3.9% 9.8% 15.5% 16.1% 30.8% 7.0% 6.7% 1.8% 0.9% 0.9% 0.3% 1.0% 2.2% 0.3% 0.1% 0.3% General Unique ID : 212019796967082997256667591408816320058 (0x9F81870F5D1845DABDCB83A7BCB96E3A) Complete name : S:Asphalt.City.2023.BDRip.x264.seleZen.mkv Format : Matroska Format version : Version 4 File size : 6.16 GiB Duration : 2 h 5 min Overall bit rate : 7 028 kb/s Frame rate : 23.976 FPS Movie name : Asphalt.City.2023.BDRip.x264.seleZen Encoded date : 2024-05-29 17:14:42 UTC Writing application : mkvmerge v84.0 ('Sleeper') 64-bit Writing library : libebml v1.4.5 + libmatroska v1.7.1 Cover : Yes Attachments : cover.jpg / small_cover.jpg Video ID : 1 Format : AVC Format/Info : Advanced Video Codec Format profile : High@L4.1 Format settings : CABAC / 12 Ref Frames Format settings, CABAC : Yes Format settings, Reference : 12 frames Codec ID : V_MPEG4/ISO/AVC Duration : 2 h 5 min Bit rate : 5 809 kb/s Width : 1 280 pixels Height : 536 pixels Display aspect ratio : 2.39:1 Frame rate mode : Constant Frame rate : 23.976 (24000/1001) FPS Color space : YUV Chroma subsampling : 4:2:0 Bit depth : 8 bits Scan type : Progressive Bits/(Pixel*Frame) : 0.353 Stream size : 5.09 GiB (83%) Title : -=DoMiNo=- Writing library : x264 core 164 r3191 -DoMiNo Encoding settings : cabac=1 / ref=12 / deblock=1:-3:-2 / analyse=0x3:0x133 / me=umh / subme=10 / psy=1 / psy_rd=1.02:0.03 / mixed_ref=1 / me_range=32 / chroma_me=1 / trellis=2 / 8x8dct=1 / cqm=0 / deadzone=21,11 / fast_pskip=1 / chroma_qp_offset=-3 / threads=17 / lookahead_threads=4 / sliced_threads=0 / nr=0 / decimate=1 / interlaced=0 / bluray_compat=0 / constrained_intra=0 / bframes=16 / b_pyramid=2 / b_adapt=2 / b_bias=0 / direct=3 / weightb=1 / open_gop=0 / weightp=2 / keyint=240 / keyint_min=23 / scenecut=40 / intra_refresh=0 / rc_lookahead=60 / rc=crf / mbtree=0 / crf=18.0 / qcomp=0.60 / qpmin=0 / qpmax=69 / qpstep=4 / vbv_maxrate=50000 / vbv_bufsize=62500 / crf_max=0.0 / nal_hrd=none / filler=0 / ip_ratio=1.35 / pb_ratio=1.25 / aq=3:0.80 Language : English Default : Yes Forced : No Audio #1 ID : 2 Format : AC-3 Format/Info : Audio Coding 3 Commercial name : Dolby Digital Codec ID : A_AC3 Duration : 2 h 5 min Bit rate mode : Constant Bit rate : 192 kb/s Channel(s) : 2 channels Channel layout : L R Sampling rate : 48.0 kHz Frame rate : 31.250 FPS (1536 SPF) Compression mode : Lossy Stream size : 172 MiB (3%) Title : DUB - Soundmasters Language : Russian Service kind : Complete Main Default : Yes Forced : No Dialog Normalization : -19 dB compr : -0.28 dB ltrtcmixlev : -3.0 dB ltrtsurmixlev : -3.0 dB lorocmixlev : -3.0 dB lorosurmixlev : -3.0 dB dialnorm_Average : -19 dB dialnorm_Minimum : -19 dB dialnorm_Maximum : -19 dB Audio #2 ID : 3 Format : AC-3 Format/Info : Audio Coding 3 Commercial name : Dolby Digital Codec ID : A_AC3 Duration : 2 h 5 min Bit rate mode : Constant Bit rate : 384 kb/s Channel(s) : 6 channels Channel layout : L R C LFE Ls Rs Sampling rate : 48.0 kHz Frame rate : 31.250 FPS (1536 SPF) Compression mode : Lossy Stream size : 345 MiB (5%) Title : MVO - Soundmasters | 18+ Language : Russian Service kind : Complete Main Default : No Forced : No Dialog Normalization : -17 dB compr : -0.28 dB cmixlev : -3.0 dB surmixlev : -3 dB dmixmod : Lo/Ro ltrtcmixlev : -3.0 dB ltrtsurmixlev : -3.0 dB lorocmixlev : -3.0 dB lorosurmixlev : -3.0 dB dialnorm_Average : -17 dB dialnorm_Minimum : -17 dB dialnorm_Maximum : -17 dB Audio #3 ID : 4 Format : AC-3 Format/Info : Audio Coding 3 Commercial name : Dolby Digital Codec ID : A_AC3 Duration : 2 h 5 min Bit rate mode : Constant Bit rate : 640 kb/s Channel(s) : 6 channels Channel layout : L R C LFE Ls Rs Sampling rate : 48.0 kHz Frame rate : 31.250 FPS (1536 SPF) Compression mode : Lossy Stream size : 574 MiB (9%) Title : Original Language : English Service kind : Complete Main Default : No Forced : No Dialog Normalization : -31 dB cmixlev : -4.5 dB surmixlev : -6 dB dialnorm_Average : -31 dB dialnorm_Minimum : -31 dB dialnorm_Maximum : -31 dB Text #1 ID : 5 Format : UTF-8 Codec ID : S_TEXT/UTF8 Codec ID/Info : UTF-8 Plain Text Duration : 1 h 56 min Bit rate : 51 b/s Frame rate : 0.226 FPS Count of elements : 1581 Stream size : 44.0 KiB (0%) Title : Full Language : English Default : No Forced : No Text #2 ID : 6 Format : UTF-8 Codec ID : S_TEXT/UTF8 Codec ID/Info : UTF-8 Plain Text Duration : 2 h 4 min Bit rate : 61 b/s Frame rate : 0.272 FPS Count of elements : 2034 Stream size : 56.3 KiB (0%) Title : SDH Language : English Default : No Forced : No Menu 00:00:00.000 : Глава 1 00:11:04.413 : Глава 2 00:23:57.769 : Глава 3 00:37:04.680 : Глава 4 00:44:33.754 : Глава 5 00:59:42.036 : Глава 6 01:11:59.148 : Глава 7 01:23:21.913 : Глава 8 01:36:36.749 : Глава 9 01:44:56.164 : Глава 10 01:53:16.080 : Глава 11 02:00:03.988 : Глава 12 02:05:26.644 : Глава 13
Релиз: Присоединяйся к: Кликай на баннеры.

Всего файлов в раздаче: 1 
Asphalt.City.2023.BDRip.720p.x264.seleZen.mkv6.16 GB

Похожие раздачи по запросу - Асфальтовые
2024-05-29 magnet Асфальтовые джунгли / Asphalt City (2023) BDRip 1080p от New-Team | D, L | Soundmasters 9.81 GB ↑ 0 ↓ 0
2024-05-27 magnet Асфальтовые джунгли / Asphalt City (2023) BDRip от MegaPeer | D | Soundmasters 1.46 GB ↑ 0 ↓ 0
2024-05-17 magnet Асфальтовые джунгли / Asphalt City (2023) WEB-DL 1080p от New-Team | D, L | Soundmasters 9.51 GB ↑ 0 ↓ 0
2024-04-21 magnet Асфальтовые джунгли / Asphalt City (2023) WEB-DL 720p от селезень | L | Soundmasters 5.22 GB ↑ 0 ↓ 0
2024-04-21 magnet Асфальтовые джунгли / Asphalt City (2023) WEB-DLRip от ExKinoRay | L 752.79 MB ↑ 0 ↓ 0
2024-04-20 magnet Асфальтовые джунгли / Asphalt City (2023) WEB-DLRip от New-Team | L | Soundmaster 1.46 GB ↑ 0 ↓ 0
2024-04-20 magnet Асфальтовые джунгли / Asphalt City (2023) WEB-DL 1080p от New-Team | L | Soundmaster 9.34 GB ↑ 0 ↓ 0

Кто качает (только для создателя раздачи и модераторов): Локальные пиры отсутствуют

Комментарии


Зарегистрируйтесь чтобы добавить комментарий
Торрент клиент
byTorrent - программа для загрузки торрент-файлов.

Скачать byTorrent.exe (1,5 МБ)

Скачать byTorrent.zip (0,6 МБ)

Поддержи torrent.by
российских рублей
(300 российских рублей это 4$)

Обратная связь rss

End game ©