↑↓torrent.by
Поиск
Логин:  Регистрация
Пароль:

Обратно во мрак / Back to Black (2024) WEB-DL 1080p от New-Team | P, L | Jaskier, Soundmasters

download Скачать торрент-файл   magnet Магнитная ссылка Размер: 7.04 GB Добавлен: 2024-05-30 05:00
Пиры будут получены из сети DHT
Последний сидер был замечен 2024-05-30 05:00
Обратно во мрак / Back to Black Год выпуска: 2024 Выпущено: Франция, Великобритания, США / Canal+ , Cine+, M6, Monumental Pictures / Monumental Vision Жанр: биография, музыка, драма Режиссер: Сэм Тейлор-Джонсон / Sam Taylor-Johnson В ролях: Мариса Абела, Райан О'Доэрти, Лесли Мэнвилл, Джек О’Коннелл, Эдди Марсан, Бронсон Уэбб, Ансу Кабиа, Сэм Бьюкенен, Харли Бёрд, Пьер Бергман, Тим Трелоа, Колин Мейс, Исаак Каинер О фильме: История жизни и творчества Эми Уайнхаус, ставшей одной из самых заметных британских певиц 2000-х годов. Дерзкий стиль и эксцентричное контральто прославило исполнительницу соула, джаза и R&B на весь мир. Несмотря на успех, обладательница шести «Грэмми» Уайнхаус так и не смогла побороть своих внутренних демонов, став одной из тех, кто попал в печально известный «Клуб 27». Продолжительность: 02:02:08 Перевод: #1: Профессиональный (многоголосый закадровый) | Jaskier | 18 + #2: Любительский (многоголосый, закадровый) | Soundmasters | 18 + Субтитры: Русские (forced (Jask)), английские (full, SDH) Раздача от: Автор релиза: JNS82. Формат: MKV Качество: WEB-DL 1080p | AMZN Видео: MPEG-4 AVC, (1,85:1), 1920@1924x1040, 7033 Кбит/с, 24,000 fps Аудио #1: 48 kHz, AC3 Dolby Digital, 3/2 (L,C,R,l,r) + LFE ch, ~ 384 kbps | RUS | Jaskier Аудио #2: 48 kHz, AC3 Dolby Digital, 2/0 (L,R) ch, ~ 192 kbps | RUS | Soundmasters Аудио #3: 48 kHz, E-AC3 Dolby Digital, 3/2 (L,C,R,l,r) + LFE ch, ~ 640 kbps | ENG |
[+] MediaInfoОбщее Уникальный идентификатор : 305096149186399558690389971168405766967 (0xE5876186D377E72D07265C0050C04337) Полное имя : D:TorrentsBack.to.Black.2024.1080p.AMZN_от New-Team.mkv Формат : Matroska Версия формата : Version 4 Размер файла : 7,04 Гбайт Продолжительность : 2 ч. 2 м. Общий поток : 8 251 Кбит/сек Название фильма : Back.to.Black.2024.1080p.AMZN_от New-Team Дата кодирования : UTC 2024-05-29 19:25:17 Программа кодирования : mkvmerge v79.0 ('Funeral Pyres') 64-bit Библиотека кодирования : libebml v1.4.4 + libmatroska v1.7.1 Видео Идентификатор : 1 Формат : AVC Формат/Информация : Advanced Video Codec Профиль формата : High@L4 Настройки формата : CABAC / 4 Ref Frames Параметр CABAC формата : Да Параметр RefFrames формата : 4 кадра Идентификатор кодека : V_MPEG4/ISO/AVC Продолжительность : 2 ч. 2 м. Вид битрейта : Постоянный Битрейт : 7 033 Кбит/сек Номинальный битрейт : 10 000 Кбит/сек Ширина : 1 920 пикселей Высота : 1 040 пикселей Соотношение сторон : 1,85:1 Режим частоты кадров : Постоянный Частота кадров : 24,000 кадра/сек Цветовое пространство : YUV Субдискретизация насыщенности : 4:2:0 Битовая глубина : 8 бит Тип развёртки : Прогрессивная Бит/(Пиксели*Кадры) : 0.147 Размер потока : 6,00 Гбайт (85%) Язык : English Default : Да Forced : Нет Цветовой диапазон : Limited Основные цвета : BT.709 Характеристики трансфера : BT.709 Коэффициенты матрицы : BT.709 Аудио #1 Идентификатор : 2 Формат : AC-3 Формат/Информация : Audio Coding 3 Коммерческое название : Dolby Digital Идентификатор кодека : A_AC3 Продолжительность : 2 ч. 2 м. Вид битрейта : Постоянный Битрейт : 384 Кбит/сек Каналы : 6 каналов Channel layout : L R C LFE Ls Rs Частота : 48,0 КГц Частота кадров : 31,250 кадров/сек (1536 SPF) Метод сжатия : С потерями Размер потока : 336 Мбайт (5%) Заголовок : MVO - Jaskier Язык : Russian Service kind : Complete Main Default : Да Forced : Нет Аудио #2 Идентификатор : 3 Формат : AC-3 Формат/Информация : Audio Coding 3 Коммерческое название : Dolby Digital Идентификатор кодека : A_AC3 Продолжительность : 2 ч. 2 м. Вид битрейта : Постоянный Битрейт : 192 Кбит/сек Каналы : 2 канала Channel layout : L R Частота : 48,0 КГц Частота кадров : 31,250 кадров/сек (1536 SPF) Метод сжатия : С потерями Размер потока : 168 Мбайт (2%) Заголовок : MVO - Soundmasters Язык : Russian Service kind : Complete Main Default : Нет Forced : Нет Аудио #3 Идентификатор : 4 Формат : E-AC-3 Формат/Информация : Enhanced AC-3 Коммерческое название : Dolby Digital Plus Идентификатор кодека : A_EAC3 Продолжительность : 2 ч. 2 м. Вид битрейта : Постоянный Битрейт : 640 Кбит/сек Каналы : 6 каналов Channel layout : L R C LFE Ls Rs Частота : 48,0 КГц Частота кадров : 31,250 кадров/сек (1536 SPF) Метод сжатия : С потерями Размер потока : 559 Мбайт (8%) Заголовок : Original Язык : English Service kind : Complete Main Default : Нет Forced : Нет Текст #1 Идентификатор : 5 Формат : UTF-8 Идентификатор кодека : S_TEXT/UTF8 Идентификатор кодека/Информация : UTF-8 Plain Text Продолжительность : 1 ч. 53 м. Битрейт : 22 бит/сек Count of elements : 355 Размер потока : 18,9 Кбайт (0%) Заголовок : Язык : Russian Default : Да Forced : Нет Текст #2 Идентификатор : 6 Формат : UTF-8 Идентификатор кодека : S_TEXT/UTF8 Идентификатор кодека/Информация : UTF-8 Plain Text Продолжительность : 1 ч. 59 м. Битрейт : 57 бит/сек Count of elements : 1424 Размер потока : 50,5 Кбайт (0%) Заголовок : Язык : English Default : Нет Forced : Нет Текст #3 Идентификатор : 7 Формат : UTF-8 Идентификатор кодека : S_TEXT/UTF8 Идентификатор кодека/Информация : UTF-8 Plain Text Продолжительность : 1 ч. 59 м. Битрейт : 61 бит/сек Count of elements : 1519 Размер потока : 53,4 Кбайт (0%) Заголовок : SDH Язык : English Default : Нет Forced : Нет Меню 00:00:00.000 : en:Scene 1 02:02:03.000 : en:Outro

Всего файлов в раздаче: 1 
Back.to.Black.2024.1080p.AMZN_от New-Team.mkv7.04 GB

Похожие раздачи по запросу - Обратно
2024-06-09 magnet Обратно во мрак / Back to Black (2024) WEB-DL 1080p от New-Team | P, L 7.53 GB ↑ 0 ↓ 0
2024-05-31 magnet Обратно во мрак / Back to Black (2024) WEB-DL 1080p от New-Team | P, L | HDRezka, Jaskier, Soundmasters 7.20 GB ↑ 0 ↓ 1
2024-05-31 magnet Обратно во мрак / Back to Black (2024) WEB-DLRip-AVC от ExKinoRay | P | Jaskier 1.46 GB ↑ 0 ↓ 0
2024-05-30 magnet Обратно во мрак / Back to Black (2024) WEB-DL 720p от DoMiNo & селезень | P, L | Jaskier, Soundmasters 3.38 GB ↑ 0 ↓ 0
2024-05-30 magnet Обратно во мрак / Back to Black (2024) WEB-DL 1080p от Jaskier | P 9.15 GB ↑ 0 ↓ 0
2023-08-15 magnet Клиффорд Саймак - Зачем звать их обратно с небес? (2023) MP3 209.60 MB ↑ 0 ↓ 0

Комментарии


Зарегистрируйтесь чтобы добавить комментарий
Торрент клиент
byTorrent - программа для загрузки торрент-файлов.

Скачать byTorrent.exe (1,5 МБ)

Скачать byTorrent.zip (0,6 МБ)

Поддержи torrent.by
российских рублей
(300 российских рублей это 4$)

Обратная связь rss

End game ©