↑↓torrent.by
Поиск
Логин:  Регистрация
Пароль:

Обратно во мрак / Back to Black (2024) WEB-DL 720p от DoMiNo & селезень | P, L | Jaskier, Soundmasters

download Скачать торрент-файл   magnet Магнитная ссылка Размер: 3.38 GB Добавлен: 2024-05-30 05:00
Пиры будут получены из сети DHT
Последний сидер был замечен 2024-06-04 08:54
Информация о фильме Название: Обратно во мрак Оригинальное название: Back to Black Год выпуска: 2024 Жанр: биография, музыка, драма Режиссер: Сэм Тейлор-Джонсон / Sam Taylor-Johnson В ролях: Мариса Абела, Райан О'Доэрти, Лесли Мэнвилл, Джек О’Коннелл, Эдди Марсан, Бронсон Уэбб, Ансу Кабиа, Сэм Бьюкенен, Харли Бёрд, Пьер Бергман, Тим Трелоа, Колин Мейс, Исаак Каинер О фильме: История жизни и творчества Эми Уайнхаус, ставшей одной из самых заметных британских певиц 2000-х годов. Дерзкий стиль и эксцентричное контральто прославило исполнительницу соула, джаза и R&B на весь мир. Несмотря на успех, обладательница шести «Грэмми» Уайнхаус так и не смогла побороть своих внутренних демонов, став одной из тех, кто попал в печально известный «Клуб 27». Выпущено: Франция, Великобритания, США / Canal+ , Cine+, M6, Monumental Pictures / Monumental Vision Продолжительность: 02:02:08 Перевод 1: Профессиональный (многоголосый закадровый) | Jaskier | 18 + Перевод 2: Любительский (многоголосый, закадровый) | Soundmasters | 18 + Субтитры: Русские (Forced), Английские Файл Формат: Matroska Качество: WEB-DL 720p | AMZN Видео: 1280@1272x688 at 23.976 fps, MPEG-4 AVC, ~2744 kbps Аудио 1: AC3, 6 ch, ~384 kbps - | Русский | | Jaskier | 18 + Аудио 2: AC3, 2 ch, ~192 kbps - | Русский | | Soundmasters | 18 + Аудио 3: E-AC3, 6 ch, ~640 kbps - | Английский | | Original Формат субтитров: softsub (SRT)
[+] M/IGeneral Unique ID : 64631671524517251643218343713415382372 (0x309F9B6E79F84199469517E6D11C4564) Complete name : S:Back.to.Black.2024.AMZN.WEB-DL.720p.x264.seleZen.mkv Format : Matroska Format version : Version 4 File size : 3.38 GiB Duration : 2 h 2 min Overall bit rate : 3 962 kb/s Frame rate : 24.000 FPS Movie name : Back.to.Black.2024.AMZN.WEB-DL.720p.x264.seleZen Encoded date : 2024-05-29 18:33:54 UTC Writing application : mkvmerge v84.0 ('Sleeper') 64-bit Writing library : libebml v1.4.5 + libmatroska v1.7.1 Cover : Yes Attachments : cover.jpg / small_cover.jpg Video ID : 1 Format : AVC Format/Info : Advanced Video Codec Format profile : High@L3.1 Format settings : CABAC / 4 Ref Frames Format settings, CABAC : Yes Format settings, Reference : 4 frames Codec ID : V_MPEG4/ISO/AVC Duration : 2 h 2 min Bit rate mode : Constant Bit rate : 2 744 kb/s Nominal bit rate : 4 000 kb/s Width : 1 280 pixels Height : 688 pixels Display aspect ratio : 1.85:1 Frame rate mode : Constant Frame rate : 24.000 FPS Color space : YUV Chroma subsampling : 4:2:0 Bit depth : 8 bits Scan type : Progressive Bits/(Pixel*Frame) : 0.130 Stream size : 2.34 GiB (69%) Title : -=DoMiNo=- Language : English (GB) Default : Yes Forced : No Color range : Limited Color primaries : BT.709 Transfer characteristics : BT.709 Matrix coefficients : BT.709 Audio #1 ID : 2 Format : AC-3 Format/Info : Audio Coding 3 Commercial name : Dolby Digital Codec ID : A_AC3 Duration : 2 h 2 min Bit rate mode : Constant Bit rate : 384 kb/s Channel(s) : 6 channels Channel layout : L R C LFE Ls Rs Sampling rate : 48.0 kHz Frame rate : 31.250 FPS (1536 SPF) Compression mode : Lossy Stream size : 336 MiB (10%) Title : MVO - Jaskier Language : Russian Service kind : Complete Main Default : Yes Forced : No Dialog Normalization : -31 dB cmixlev : -4.5 dB surmixlev : -6 dB dialnorm_Average : -31 dB dialnorm_Minimum : -31 dB dialnorm_Maximum : -31 dB Audio #2 ID : 3 Format : AC-3 Format/Info : Audio Coding 3 Commercial name : Dolby Digital Codec ID : A_AC3 Duration : 2 h 2 min Bit rate mode : Constant Bit rate : 192 kb/s Channel(s) : 2 channels Channel layout : L R Sampling rate : 48.0 kHz Frame rate : 31.250 FPS (1536 SPF) Compression mode : Lossy Stream size : 168 MiB (5%) Title : MVO - Soundmasters Language : Russian Service kind : Complete Main Default : No Forced : No Dialog Normalization : -31 dB dialnorm_Average : -31 dB dialnorm_Minimum : -31 dB dialnorm_Maximum : -31 dB Audio #3 ID : 4 Format : E-AC-3 Format/Info : Enhanced AC-3 Commercial name : Dolby Digital Plus Codec ID : A_EAC3 Duration : 2 h 2 min Bit rate mode : Constant Bit rate : 640 kb/s Channel(s) : 6 channels Channel layout : L R C LFE Ls Rs Sampling rate : 48.0 kHz Frame rate : 31.250 FPS (1536 SPF) Compression mode : Lossy Stream size : 559 MiB (16%) Title : British Language : English (GB) Service kind : Complete Main Default : No Forced : No Dialog Normalization : -31 dB compr : -0.28 dB dialnorm_Average : -31 dB dialnorm_Minimum : -31 dB dialnorm_Maximum : -31 dB Text #1 ID : 5 Format : UTF-8 Codec ID : S_TEXT/UTF8 Codec ID/Info : UTF-8 Plain Text Duration : 1 h 53 min Bit rate : 22 b/s Frame rate : 0.052 FPS Count of elements : 355 Stream size : 18.9 KiB (0%) Title : Forced Language : Russian Default : No Forced : No Text #2 ID : 6 Format : UTF-8 Codec ID : S_TEXT/UTF8 Codec ID/Info : UTF-8 Plain Text Duration : 1 h 59 min Bit rate : 57 b/s Frame rate : 0.199 FPS Count of elements : 1424 Stream size : 50.5 KiB (0%) Title : Full Language : English (US) Default : No Forced : No Text #3 ID : 7 Format : UTF-8 Codec ID : S_TEXT/UTF8 Codec ID/Info : UTF-8 Plain Text Duration : 1 h 59 min Bit rate : 61 b/s Frame rate : 0.212 FPS Count of elements : 1519 Stream size : 53.4 KiB (0%) Title : SDH Language : English (US) Default : No Forced : No Menu 00:00:00.000 : en:Scene 1 02:02:03.000 : en:Outro
Релиз: Присоединяйся к: Кликай на баннеры.

Всего файлов в раздаче: 1 
Back.to.Black.2024.AMZN.WEB-DL.720p.x264.seleZen.mkv3.38 GB

Похожие раздачи по запросу - Обратно
2024-06-09 magnet Обратно во мрак / Back to Black (2024) WEB-DL 1080p от New-Team | P, L 7.53 GB ↑ 0 ↓ 0
2024-05-31 magnet Обратно во мрак / Back to Black (2024) WEB-DL 1080p от New-Team | P, L | HDRezka, Jaskier, Soundmasters 7.20 GB ↑ 0 ↓ 0
2024-05-31 magnet Обратно во мрак / Back to Black (2024) WEB-DLRip-AVC от ExKinoRay | P | Jaskier 1.46 GB ↑ 0 ↓ 1
2024-05-30 magnet Обратно во мрак / Back to Black (2024) WEB-DL 1080p от New-Team | P, L | Jaskier, Soundmasters 7.04 GB ↑ 0 ↓ 0
2024-05-30 magnet Обратно во мрак / Back to Black (2024) WEB-DL 1080p от Jaskier | P 9.15 GB ↑ 1 ↓ 0
2023-08-15 magnet Клиффорд Саймак - Зачем звать их обратно с небес? (2023) MP3 209.60 MB ↑ 0 ↓ 0

Кто качает (только для создателя раздачи и модераторов): Локальные пиры отсутствуют

Комментарии


Зарегистрируйтесь чтобы добавить комментарий
Торрент клиент
byTorrent - программа для загрузки торрент-файлов.

Скачать byTorrent.exe (1,5 МБ)

Скачать byTorrent.zip (0,6 МБ)

Поддержи torrent.by
российских рублей
(300 российских рублей это 4$)

Обратная связь rss

End game ©