↑↓torrent.by
Поиск
Логин:  Регистрация
Пароль:

Чистильщик бассейнов / Poolman (2023) WEB-DL 1080p от селезень | D | Локализованная версия

download Скачать торрент-файл   magnet Магнитная ссылка Размер: 3.99 GB Раздают: 0 Качают: 1 Добавлен: 2024-05-30 05:00
Пиры будут получены из сети DHT
Последний сидер был замечен 2024-05-30 08:39
Информация о фильме Название: Чистильщик бассейнов Оригинальное название: Poolman Год выхода: 2023 Жанр: комедия, детектив Режиссер: Крис Пайн В ролях: Крис Пайн, Дженнифер Джейсон Ли, Дэнни ДеВито, Аннетт Бенинг, Афламу Джонсон, Стивен Тоболовски, Джон Ортис, Эрми Хикс мл., Холлис В. Чэмберс, Кристофер Чен О фильме: Лос-Анджелес. Даррен работает чистильщиком бассейна в многоквартирном доме в престижном районе. Однажды он решает, что наткнулся на величайший заговор, и начинает собственное расследование, привлекая к этому коррумпированные городские власти, прожженных типов из Голливуда и таинственных благотворителей. Страна: США Студия: Barry Linen Productions, Brickell & Broadbridge International, Catchlight Studios, Shiny Penny, Wicious Pictures Продолжительность: 01:39:46 Перевод: Дублированный | Мосфильм-Мастер (OKKO) Качество: WEB-DL 1080p Видео: MPEG-4 AVC, 1920x804, 4960 Kbit/s, 24.000 fps Аудио #01: 48 kHz, AC3, 5.1, 384 Kbps | Дублированный | Мосфильм-Мастер | RUS | Аудио #02: 48 kHz, E-AC3, 5.1, 384 Kbps | Дублированный | Мосфильм-Мастер | RUS | Субтитры: Русские (Full), английские
[+] MIGeneral Unique ID : 86197391764853893103117929760421723632 (0x40D90387ECCD258356A90E6788BE3DF0) Complete name : E:WorkEPoolman.2023.WEB-DL.1080p.seleZen.mkv Format : Matroska Format version : Version 4 File size : 3.99 GiB Duration : 1 h 39 min Overall bit rate : 5 731 kb/s Frame rate : 24.000 FPS Movie name : Poolman (2023) from seleZen Encoded date : 2024-05-29 18:18:32 UTC Writing application : mkvmerge v84.0 ('Sleeper') 64-bit Writing library : libebml v1.4.5 + libmatroska v1.7.1 Video ID : 1 Format : AVC Format/Info : Advanced Video Codec Format profile : High@L4 Format settings : CABAC / 3 Ref Frames Format settings, CABAC : Yes Format settings, Reference : 3 frames Codec ID : V_MPEG4/ISO/AVC Duration : 1 h 39 min Bit rate : 4 960 kb/s Width : 1 920 pixels Height : 804 pixels Display aspect ratio : 2.39:1 Frame rate mode : Constant Frame rate : 24.000 FPS Color space : YUV Chroma subsampling : 4:2:0 Bit depth : 8 bits Scan type : Progressive Bits/(Pixel*Frame) : 0.134 Stream size : 3.46 GiB (87%) Default : Yes Forced : No Color range : Limited Color primaries : BT.709 Transfer characteristics : BT.709 Matrix coefficients : BT.709 Audio #1 ID : 2 Format : AC-3 Format/Info : Audio Coding 3 Commercial name : Dolby Digital Codec ID : A_AC3 Duration : 1 h 39 min Bit rate mode : Constant Bit rate : 384 kb/s Channel(s) : 6 channels Channel layout : L R C LFE Ls Rs Sampling rate : 48.0 kHz Frame rate : 31.250 FPS (1536 SPF) Compression mode : Lossy Stream size : 274 MiB (7%) Title : Dub Language : Russian Service kind : Complete Main Default : Yes Forced : No AC3_metadata cmixlev : -3.0 dB surmixlev : -6 dB Audio #2 ID : 3 Format : E-AC-3 Format/Info : Enhanced AC-3 Commercial name : Dolby Digital Plus Codec ID : A_EAC3 Duration : 1 h 39 min Bit rate mode : Constant Bit rate : 384 kb/s Channel(s) : 6 channels Channel layout : L R C LFE Ls Rs Sampling rate : 48.0 kHz Frame rate : 31.250 FPS (1536 SPF) Compression mode : Lossy Stream size : 274 MiB (7%) Title : Dub Language : Russian Service kind : Complete Main Default : No Forced : No Text #1 ID : 4 Format : UTF-8 Codec ID : S_TEXT/UTF8 Codec ID/Info : UTF-8 Plain Text Duration : 1 h 33 min Bit rate : 109 b/s Frame rate : 0.325 FPS Count of elements : 1828 Stream size : 75.1 KiB (0%) Title : Full Language : Russian Default : No Forced : No Text #2 ID : 5 Format : UTF-8 Codec ID : S_TEXT/UTF8 Codec ID/Info : UTF-8 Plain Text Duration : 1 h 30 min Bit rate : 81 b/s Frame rate : 0.319 FPS Count of elements : 1726 Stream size : 53.5 KiB (0%) Title : Full Language : English Default : No Forced : No
Релиз: Присоединяйся к: Кликай на баннеры.

Всего файлов в раздаче: 1 
Poolman.2023.WEB-DL.1080p.seleZen.mkv3.99 GB

Похожие раздачи по запросу - Чистильщик
2024-05-30 magnet Чистильщик бассейнов / Poolman (2023) WEB-DLRip 720p от DoMiNo & селезень | D | Локализованная версия 2.05 GB ↑ 2 ↓ 0
2024-05-25 magnet Чистильщик бассейнов / Poolman (2023) WEB-DLRip от New-Team | D | Локализованная версия 1.46 GB ↑ 0 ↓ 0
2024-05-25 magnet Чистильщик бассейнов / Free State (2023) WEB-DL 1080p | D | Локализованная версия 3.83 GB ↑ 0 ↓ 1

Кто качает (только для создателя раздачи и модераторов):
ПользовательIP:портОтдалПринялОстатокСидируетТоррент клиентОбновился
1 Аноним 196.249.30.85:32000 0.00 B 236.16 MB 3.92 GB нет -qB4390- 11:36 2024-06-16

Комментарии


Зарегистрируйтесь чтобы добавить комментарий
Торрент клиент
byTorrent - программа для загрузки торрент-файлов.

Скачать byTorrent.exe (1,5 МБ)

Скачать byTorrent.zip (0,6 МБ)

Поддержи torrent.by
российских рублей
(300 российских рублей это 4$)

Обратная связь rss

End game ©