↑↓torrent.by
Поиск
Логин:  Регистрация
Пароль:

Шестой (1981) WEB-DLRip от New-Team

download Скачать торрент-файл   magnet Магнитная ссылка Размер: 745.64 MB Добавлен: 2024-05-30 11:00
Пиры будут получены из сети DHT
Последний сидер был замечен сегодня в 12:04
Страна: СССР Производство: Студия Горького Жанр: боевик Год выпуска: 1981 Продолжительность: 01:19:29 Перевод: не требуется Оригинальная аудиодорожка: русский Cубтитры: русский, английский Режиссер: Самвел Гаспаров В ролях: Сергей Никоненко, Михаил Козаков, Владимир Грамматиков, Михаил Пуговкин, Евгений Бакалов, Тимофей Спивак, Сергей Ульянов, Михарбек Кокоев, Лариса Белогурова, Нина Меньшикова, Марина Яковлева, Борис Гитин, Георгий Милляр, Александр Галибин, Виктор Андриенко... Подробнее об актерах Описание: Отгремела гражданская война. В маленьком южном городке появился шестой по счету начальник милиции. Пятеро предшественников Глодова вместе с другими активистами были зверски убиты бандой неуловимого Вахрамеева. И теперь Глодову с несколькими верными помощниками предстояла смертельная схватка с сильным врагом… Исходник: WEB-DL 1080p Тип релиза: WEB-DLRip Контейнер: AVI Видео: 720x304 (2.35:1), 25 кадра/сек, XviD 73 ~ 1110 кбит/сек, 0.203 бит/пиксель Аудио: 48 кГц, Dolby Digital AC3 2.0, 192 кбит/сек Раздача от:
[+] MediaInfo Общее Полное имя : Шестой.1981.WEB-DLRip__by_AVP_Studio.avi Формат : AVI Формат/Информация : Audio Video Interleave Настройки формата : BitmapInfoHeader / WaveFormatEx Размер файла : 746 Мбайт Продолжительность : 1 ч. 19 мин. Общий битрейт : 1 311 Кбит/сек Частота кадров : 25,000 кадров/сек Программа кодирования : VirtualDubMod 1.5.10.3 | www.virtualdub-fr.org || (build 2550/release) Библиотека кодирования : VirtualDubMod build 2550/release Видео Идентификатор : 0 Формат : MPEG-4 Visual Профиль формата : Advanced Simple@L5 Настройки формата : BVOP1 / Custom Matrix Параметр BVOP формата : 1 Параметр QPel формата : Нет Параметр GMC формата : Без точки перехода Параметр Matrix формата : Выборочная Идентификатор кодека : XVID Идентификатор кодека/Подсказка : XviD Продолжительность : 1 ч. 19 мин. Битрейт : 1 110 Кбит/сек Ширина : 720 пикселей Высота : 304 пикселя Соотношение сторон дисплея : 2,35:1 Частота кадров : 25,000 кадров/сек Цветовое пространство : YUV Цветовая субдискретизация : 4:2:0 Битовая глубина : 8 бит Тип развёртки : Прогрессивная Метод сжатия : С потерями Бит/(Пиксели*Кадры) : 0.203 Размер потока : 631 Мбайт (85%) Библиотека кодирования : XviD 73 Аудио Идентификатор : 1 Формат : AC-3 Формат/Информация : Audio Coding 3 Коммерческое название : Dolby Digital Идентификатор кодека : 2000 Продолжительность : 1 ч. 19 мин. Вид битрейта : Постоянный Битрейт : 192 Кбит/сек Канал(-ы) : 2 канала Расположение каналов : L R Частота дискретизации : 48,0 КГц Частота кадров : 31,250 кадров/сек (1536 SPF) Метод сжатия : С потерями Размер потока : 109 Мбайт (15%) Выравнивание : Разделение по промежуткам Чередование, продолжительность : 40 мс. (1,00 видеокадр) Чередование, продолжительность пред.загр : 500 мс Нормализация звука речи : -31 dB dialnorm_Average : -31 dB dialnorm_Minimum : -31 dB dialnorm_Maximum : -31 dB
[+] Скриншоты

Всего файлов в раздаче: 1 
Шестой.1981.WEB-DLRip_[New-team]_by_AVP_Studio.avi745.64 MB

Похожие раздачи по запросу - Шестой
2024-05-29 magnet Шестой (1981) WEB-DLRip 720p от New-Team 2.18 GB ↑ 0 ↓ 0
2024-05-29 magnet Шестой (1981) WEB-DLRip-AVC от New-Team 1.09 GB ↑ 0 ↓ 0
2024-05-29 magnet Шестой (1981) DVDRip-AVC от New-Team 1.46 GB ↑ 0 ↓ 0
2024-03-27 magnet Шестой день / The 6th Day (2000) BDRip от ivandubskoj | D, P | Лицензия 2.53 GB ↑ 0 ↓ 0

Кто качает (только для создателя раздачи и модераторов): Локальные пиры отсутствуют

Комментарии


Зарегистрируйтесь чтобы добавить комментарий
Торрент клиент
byTorrent - программа для загрузки торрент-файлов.

Скачать byTorrent.exe (1,5 МБ)

Скачать byTorrent.zip (0,6 МБ)

Поддержи torrent.by
российских рублей
(300 российских рублей это 4$)

Обратная связь rss

End game ©