↑↓torrent.by
Поиск
Логин:  Регистрация
Пароль:

Десятилетний Том / Ten Year Old Tom [S02] (2023) WEBRip 1080p | Omskbird

download Скачать торрент-файл   magnet Магнитная ссылка Размер: 4.40 GB Добавлен: 2024-05-30 11:00
Пиры будут получены из сети DHT
Последний сидер был замечен 2024-05-30 11:00
Информация о сериале: Название: Десятилетний Том Оригинальное название: Ten Year Old Tom Год выхода: 2023 Жанр: мультфильм, комедия Режиссер: Стив Дилдариан В ролях: Стив Дилдариан, Байрон Бауэрс, Эди Паттерсон, Тодд Гласс, Бен Роджерс, Эрик Гриффин, Гиллиан Джейкобс, Джон Малкович, Тейлор Мисяк, Мэтт Джонсон и др. Описание сериала: Взрослые, с которыми приходится сталкиваться десятилетнему Тому, совершенно не умеют подавать хороший пример ребёнку. Каждый день мальчик подвергается дурному влиянию то со стороны своих непутёвых родителей, то со стороны посторонних людей: водителей автобусов, которые приторговывают наркотиками, или учителей, которые пытаются флиртовать с матерью Тома. Том делает всё возможное, чтобы избежать самых отвратительных явлений мира. Страна: США Продолжительность: ~ 10 x ~ 00:26:00 Перевод: Любительский (многоголосый закадровый) | OMSKBIRD Файл Качество: WEBRip (1080p) Видео: MPEG-4 AVC, ~ 1831 Кбит/с, 1920x1080 Аудио: Русский (AC3, 6 ch, 384 Кбит/с), Английский (AC3, 6 ch, 384 Кбит/с) Субтитры: Русские (форсированные), Английские / Srt Семпл Релиз содержит рекламные аудио вставки. ПРИСУТСТВУЕТ НЕЦЕНЗУРНАЯ ЛЕКСИКА!
[+] Скриншоты:
[+] Mediainfo:General Unique ID : 219754610719820949839676358337433204804 (0xA55332D2390DA29E44499026B7707844) Complete name : D:DocsVideoArchiveTen.Year.Old.Tom.S02.1080p.WEBRip.OmskbirdTen Year Old Tom 2x01 1080p .mkv Format : Matroska Format version : Version 4 File size : 500 MiB Duration : 26 min 52 s Overall bit rate mode : Variable Overall bit rate : 2 602 kb/s Frame rate : 23.976 FPS Encoded date : 2024-05-07 13:24:10 UTC Writing application : mkvmerge v78.0 ('Running') 64-bit Writing library : libebml v1.4.4 + libmatroska v1.7.1 Video ID : 1 Format : AVC Format/Info : Advanced Video Codec Format profile : High@L4.1 Format settings : CABAC / 4 Ref Frames Format settings, CABAC : Yes Format settings, Reference frames : 4 frames Codec ID : V_MPEG4/ISO/AVC Duration : 26 min 52 s Bit rate mode : Variable Bit rate : 1 831 kb/s Maximum bit rate : 10 000 kb/s Width : 1 920 pixels Height : 1 080 pixels Display aspect ratio : 16:9 Frame rate mode : Constant Frame rate : 23.976 (24000/1001) FPS Color space : YUV Chroma subsampling : 4:2:0 Bit depth : 8 bits Scan type : Progressive Bits/(Pixel*Frame) : 0.037 Stream size : 352 MiB (70%) Writing library : x264 core 164 Encoding settings : cabac=1 / ref=4 / deblock=1:0:0 / analyse=0x3:0x133 / me=umh / subme=10 / psy=1 / psy_rd=1.00:0.00 / mixed_ref=1 / me_range=24 / chroma_me=1 / trellis=2 / 8x8dct=1 / cqm=0 / deadzone=21,11 / fast_pskip=1 / chroma_qp_offset=-2 / threads=34 / lookahead_threads=2 / sliced_threads=0 / nr=0 / decimate=1 / interlaced=0 / bluray_compat=0 / stitchable=1 / constrained_intra=0 / bframes=3 / b_pyramid=2 / b_adapt=2 / b_bias=0 / direct=3 / weightb=1 / open_gop=0 / weightp=2 / keyint=96 / keyint_min=49 / scenecut=0 / intra_refresh=0 / rc_lookahead=96 / rc=crf / mbtree=1 / crf=20.0 / qcomp=0.60 / qpmin=0 / qpmax=69 / qpstep=4 / vbv_maxrate=10000 / vbv_bufsize=40000 / crf_max=0.0 / nal_hrd=vbr / filler=0 / ip_ratio=1.40 / aq=1:1.00 Default : Yes Forced : No Color range : Limited Color primaries : BT.709 Transfer characteristics : BT.709 Matrix coefficients : BT.709 Audio #1 ID : 2 Format : AC-3 Format/Info : Audio Coding 3 Commercial name : Dolby Digital Codec ID : A_AC3 Duration : 26 min 52 s Bit rate mode : Constant Bit rate : 384 kb/s Channel(s) : 6 channels Channel layout : L R C LFE Ls Rs Sampling rate : 48.0 kHz Frame rate : 31.250 FPS (1536 SPF) Compression mode : Lossy Stream size : 73.8 MiB (15%) Title : MVO, OMSKBIRD Language : Russian Service kind : Complete Main Default : Yes Forced : No Audio #2 ID : 3 Format : AC-3 Format/Info : Audio Coding 3 Commercial name : Dolby Digital Codec ID : A_AC3 Duration : 26 min 52 s Bit rate mode : Constant Bit rate : 384 kb/s Channel(s) : 6 channels Channel layout : L R C LFE Ls Rs Sampling rate : 48.0 kHz Frame rate : 31.250 FPS (1536 SPF) Compression mode : Lossy Stream size : 73.8 MiB (15%) Title : Original Language : English Service kind : Complete Main Default : No Forced : No Text ID : 4 Format : UTF-8 Codec ID : S_TEXT/UTF8 Codec ID/Info : UTF-8 Plain Text Duration : 26 min 52 s Bit rate : 144 b/s Frame rate : 0.481 FPS Count of elements : 775 Stream size : 28.5 KiB (0%) Title : English (SDH) Language : English (US) Default : No Forced : No

Всего файлов в раздаче: 10 
Ten.Year.Old.Tom.S02E01.1080p.WEBRip.Omskbird.mkv500.08 MB
Ten.Year.Old.Tom.S02E02.1080p.WEBRip.Omskbird.mkv467.71 MB
Ten.Year.Old.Tom.S02E03.1080p.WEBRip.Omskbird.mkv440.50 MB
Ten.Year.Old.Tom.S02E04.1080p.WEBRip.Omskbird.mkv464.05 MB
Ten.Year.Old.Tom.S02E05.1080p.WEBRip.Omskbird.mkv445.56 MB
Ten.Year.Old.Tom.S02E06.1080p.WEBRip.Omskbird.mkv434.99 MB
Ten.Year.Old.Tom.S02E07.1080p.WEBRip.Omskbird.mkv449.73 MB
Ten.Year.Old.Tom.S02E08.1080p.WEBRip.Omskbird.mkv446.77 MB
Ten.Year.Old.Tom.S02E09.1080p.WEBRip.Omskbird.mkv447.94 MB
Ten.Year.Old.Tom.S02E10.1080p.WEBRip.Omskbird.mkv410.44 MB

Кто качает (только для создателя раздачи и модераторов): Локальные пиры отсутствуют

Комментарии


Зарегистрируйтесь чтобы добавить комментарий
Торрент клиент
byTorrent - программа для загрузки торрент-файлов.

Скачать byTorrent.exe (1,5 МБ)

Скачать byTorrent.zip (0,6 МБ)

Поддержи torrent.by
российских рублей
(300 российских рублей это 4$)

Обратная связь rss

End game ©