↑↓torrent.by
Поиск
Логин:  Регистрация
Пароль:

Полицейский с YouТюба [1-2 сезон: 1-11 серии из 11] (2021-2023) WEBRip от Files-x

download Скачать торрент-файл   magnet Магнитная ссылка Размер: 3.00 GB Раздают: 2 Качают: 0 Добавлен: il68k 2024-05-30 15:15
Пиры будут получены из сети DHT
Последний сидер был замечен сегодня в 20:33
Информация о сериале Название: Полицейский с YouТюба (ютюба) Год выхода: 2021-2023 Жанр: Комедия, драма Режиссер: Акаки Сахелашвили В ролях: Федор Лавров, Денис Бузин, Андрей Ребенков, Александр Булатов, Богдан Кибалюк, Таша Цветкова, Андрей Борисов, Снежана Самохина О сериале: История обычного капитана полиции, который попадает в мир интернета и социальных сетей. Современная и актуальная, драматичная и смешная, история о столкновении интересов «отцов и детей» - поколения блогеров рунета и «аналоговых» представителей старшего поколения. Страна: Россия Продолжительность: 11 х ~ 00:23:00 Перевод: Не требуется Файл Качество: WEBRip Видео: XviD, ~1560 kb/s, 720x400 Звук: AC3, 2 ch, 128 kb/s
[+] MediaInfo
Общее
Полное имя                               : 01. Полицейский с YouТюба .2021-2023.BLACKTIR.WEB-DLRip.Files-x.avi
Формат                                   : AVI
Формат/Информация                        : Audio Video Interleave
Настройки формата                        : BitmapInfoHeader / WaveFormatEx
Размер файла                             : 296 Мбайт
Продолжительность                        : 23 м. 30 с.
Общий поток                              : 1 759 Кбит/сек
Частота кадров                           : 25,000 кадров/сек
Программа кодирования                    : VirtualDubMod 1.5.10.3 | www.virtualdub-fr.org || (build 2550/release)
Библиотека кодирования                   : VirtualDubMod build 2550/release

Видео
Идентификатор                            : 0
Формат                                   : MPEG-4 Visual
Профиль формата                          : Advanced Simple@L5
Настройки формата                        : BVOP1 / Custom Matrix
Параметр BVOP формата                    : 1
Параметр QPel формата                    : Нет
Параметр GMC формата                     : Без точки перехода
Параметр матрицы формата                 : Выборочная
Идентификатор кодека                     : XVID
Идентификатор кодека/Подсказка           : XviD
Продолжительность                        : 23 м. 30 с.
Битрейт                                  : 1 557 Кбит/сек
Ширина                                   : 720 пикселей
Высота                                   : 400 пикселей
Соотношение сторон                       : 16:9
Частота кадров                           : 25,000 кадров/сек
Цветовое пространство                    : YUV
Субдискретизация насыщенности            : 4:2:0
Битовая глубина                          : 8 бит
Тип развёртки                            : Прогрессивная
Метод сжатия                             : С потерями
Бит/(Пиксели*Кадры)                      : 0.216
Размер потока                            : 262 Мбайт (89%)
Библиотека кодирования                   : XviD 73

Аудио
Идентификатор                            : 1
Формат                                   : AC-3
Формат/Информация                        : Audio Coding 3
Коммерческое название                    : Dolby Digital
Идентификатор кодека                     : 2000
Продолжительность                        : 23 м. 30 с.
Вид битрейта                             : Постоянный
Битрейт                                  : 192 Кбит/сек
Каналы                                   : 2 канала
Channel layout                           : L R
Частота                                  : 48,0 КГц
Частота кадров                           : 31,250 кадров/сек (1536 SPF)
Метод сжатия                             : С потерями
Размер потока                            : 32,3 Мбайт (11%)
Выравнивание                             : Разделение по промежуткам
Продолжительность промежутка             : 40  мс. (1,00 видеокадр)
Время предзагрузки промежутка            : 500  мс.
Service kind                             : Complete Main
[+] Скриншоты
Релиз от:

Всего файлов в раздаче: 11 
S01\01. Полицейский с YouТюба .2021.WEB-DLRip.BLACKTIR.Files-x.avi279.10 MB
S01\02. Полицейский с YouТюба .2021.WEB-DLRip.BLACKTIR.Files-x.avi235.09 MB
S01\03. Полицейский с YouТюба .2021.WEB-DLRip.BLACKTIR.Files-x.avi298.74 MB
S01\04. Полицейский с YouТюба .2021.WEB-DLRip.BLACKTIR.Files-x.avi292.23 MB
S02\01. Полицейский с YouТюба .2021-2023.BLACKTIR.WEB-DLRip.Files-x.avi295.68 MB
S02\02. Полицейский с YouТюба .2021-2023.BLACKTIR.WEB-DLRip.Files-x.avi294.53 MB
S02\03. Полицейский с YouТюба .2021-2023.BLACKTIR.WEB-DLRip.Files-x.avi276.94 MB
S02\04. Полицейский с YouТюба .2021-2023.BLACKTIR.WEB-DLRip.Files-x.avi201.99 MB
S02\05. Полицейский с YouТюба .2021-2023.BLACKTIR.WEB-DLRip.Files-x.avi280.69 MB
S02\06. Полицейский с YouТюба .2021-2023.BLACKTIR.WEB-DLRip.Files-x.avi256.73 MB
Показать все файлы

Похожие раздачи по запросу - Полицейский
2024-06-15 magnet Бриллиантовый полицейский / Blue Streak (1999) BDRip-AVC от New-Team 2.19 GB ↑ 0 ↓ 0
2024-06-15 magnet Бриллиантовый полицейский / Blue Streak (1999) BDRip 720p от New-Team 4.37 GB ↑ 0 ↓ 0
2024-06-15 magnet Бриллиантовый полицейский / Blue Streak (1999) BDRip от New-Team | D 749.29 MB ↑ 0 ↓ 0
2024-05-25 magnet Полицейский из Беверли Хиллз 3 / Beverly Hills Cop III (1994) HDRip-AVC от DoMiNo & селезень | D | Netflix 2.83 GB ↑ 0 ↓ 0
2024-03-13 magnet Детсадовский полицейский / Kindergarten Cop (1990) BDRip | D | Remastered 1.46 GB ↑ 0 ↓ 0
2024-02-07 magnet Плохой хороший полицейский 2 / Bon Cop Bad Cop 2 (2017) BDRip-AVC от msltel | L 2.36 GB ↑ 0 ↓ 0

Комментарии


Зарегистрируйтесь чтобы добавить комментарий
Торрент клиент
byTorrent - программа для загрузки торрент-файлов.

Скачать byTorrent.exe (1,5 МБ)

Скачать byTorrent.zip (0,6 МБ)

Поддержи torrent.by
российских рублей
(300 российских рублей это 4$)

Обратная связь rss

End game ©