↑↓torrent.by
Поиск
Логин:  Регистрация
Пароль:

Ниндзя-стервятник / Ниндзя-кондор 13 / Ninjas, Condors 13 (1987) DVDRip от ExKinoRay | A

download Скачать торрент-файл   magnet Магнитная ссылка Размер: 1.34 GB Добавлен: 2024-05-30 17:00
Пиры будут получены из сети DHT
Последний сидер был замечен 2024-05-30 17:00
Информация о фильме Название: Ниндзя-стервятник / Ниндзя-кондор 13 Оригинальное название: Ninjas, Condors 13 Год выхода: 1987 Жанр: боевик Режиссер: Ву Куо Джен В ролях: Александр Лу, Стюарт Хью, Тимоти Джонсон, Ричард Филлипс, Эдвард Дуглас, Мэри Джонсон, Мик Мюррэй, Джей Форстер, Дэн Эдвард Перри О фильме: Маленькому мальчику Брайану приходится видеть, как преступники убивают его отца.., - этот ужас впечатывается в его память навсегда. Брайана берет под опеку мастер Ниндзя, обучая его примудростям искусства ниндзюцу. Он становится экспертом своего дела и жаждет отмщения... Страна: Гонконг Студия: Filmark International Ltd. Продолжительность: 01:30:49 Перевод: Авторский - С.Кузнецов Файл Кодек: XviD Качество: DVDRip Видео: 688x384 (1.79:1), 25 fps, XviD build 67 ~1710 kbps avg, 0.26 bit/pixel Звук: 48 kHz, AC3 Dolby Digital, 2/0 (L,R) ch, ~192 kbps Звук #2: 48 kHz, AC3 Dolby Digital, 2/0 (L,R) ch, ~192 kbps Субтитры: Отсутствуют
[+] MediaInfoGeneral Complete name : D:Ниндзя-стервятник.DVDRip.by.ExKinoRay & Shkiper.avi Format : AVI Format/Info : Audio Video Interleave Format profile : OpenDML Format settings : BitmapInfoHeader / WaveFormatEx File size : 1.34 GiB Duration : 1 h 30 min Overall bit rate : 2 114 kb/s Frame rate : 25.000 FPS Writing application : Lavf58.29.100 Video ID : 0 Format : MPEG-4 Visual Format profile : Advanced Simple@L5 Format settings : BVOP1 / Custom Matrix Format settings, BVOP : 1 Format settings, QPel : No Format settings, GMC : No warppoints Format settings, Matrix : Custom Codec ID : XVID Codec ID/Hint : XviD Duration : 1 h 30 min Bit rate : 1 710 kb/s Width : 688 pixels Height : 384 pixels Display aspect ratio : 16:9 Frame rate : 25.000 FPS Color space : YUV Chroma subsampling : 4:2:0 Bit depth : 8 bits Scan type : Progressive Original scan type : Interlaced Original scan order : Bottom Field First Compression mode : Lossy Bits/(Pixel*Frame) : 0.259 Stream size : 1.08 GiB (81%) Writing library : XviD 67 Audio #1 ID : 1 Format : AC-3 Format/Info : Audio Coding 3 Commercial name : Dolby Digital Codec ID : 2000 Duration : 1 h 30 min Bit rate mode : Constant Bit rate : 192 kb/s Channel(s) : 2 channels Channel layout : L R Sampling rate : 48.0 kHz Frame rate : 31.250 FPS (1536 SPF) Bit depth : 16 bits Compression mode : Lossy Stream size : 125 MiB (9%) Alignment : Aligned on interleaves Interleave, duration : 32 ms (0.80 video frame) Service kind : Complete Main Audio #2 ID : 2 Format : AC-3 Format/Info : Audio Coding 3 Commercial name : Dolby Digital Codec ID : 2000 Duration : 1 h 30 min Bit rate mode : Constant Bit rate : 192 kb/s Channel(s) : 2 channels Channel layout : L R Sampling rate : 48.0 kHz Frame rate : 31.250 FPS (1536 SPF) Bit depth : 16 bits Compression mode : Lossy Stream size : 125 MiB (9%) Alignment : Aligned on interleaves Interleave, duration : 32 ms (0.80 video frame) Service kind : Complete Main
[+] Скриншоты
Релиз от: Рип изготовил:

Всего файлов в раздаче: 1 
Ниндзя-стервятник.DVDRip.by.ExKinoRay & Shkiper.avi1.34 GB

Похожие раздачи по запросу - Ниндзя-стервятник
2024-05-29 magnet Ниндзя-стервятник / Ниндзя-кондор 13 / Ninjas, Condors 13 (1987) DVDRip от ExKinoRay | A 743.44 MB ↑ 0 ↓ 0
2024-01-23 magnet Месть ниндзя / Revenge of the Ninja (1983) BDRip от HELLYWOOD 1.45 GB ↑ 0 ↓ 0
2023-09-04 magnet Черепашки-ниндзя: Погром мутантов / Teenage Mutant Ninja Turtles: Mutant Mayhem (2023) WEB-DL 1080p | P | Jaskier 6.42 GB ↑ 0 ↓ 0

Комментарии


Зарегистрируйтесь чтобы добавить комментарий
Торрент клиент
byTorrent - программа для загрузки торрент-файлов.

Скачать byTorrent.exe (1,5 МБ)

Скачать byTorrent.zip (0,6 МБ)

Поддержи torrent.by
российских рублей
(300 российских рублей это 4$)

Обратная связь rss

End game ©