↑↓torrent.by
Поиск
Логин:  Регистрация
Пароль:

Цена соблазна / Un coup de dés / Breaking Point (2023) WEB-DLRip 720p от DoMiNo & селезень | D | Нарышкин

download Скачать торрент-файл   magnet Магнитная ссылка Размер: 1.74 GB Раздают: 0 Качают: 1 Добавлен: 2024-05-30 17:00
Пиры будут получены из сети DHT
Последний сидер был замечен сегодня в 21:28
Информация о фильме Название: Цена соблазна Оригинальное название: Un coup de dés / Breaking Point Год выхода: 2023 Жанр: триллер, драма Режиссер: Иван Атталь В ролях: Иван Атталь, Майвенн, Гийом Кане, Мари-Жозе Кроз, Альма Ходоровски, Виктор Бельмондо, Микаэль Эрпелдинг, Loan Visioli, Maxime Chaelis, Delphine Chatelin О фильме: Матьё - верный муж и преданный друг, умеющий хранить секреты. Однажды, пытаясь уладить конфликт с новой любовницей лучшего друга, он сам неожиданно влюбляется в девушку. Внезапно её находят мёртвой, и героев затягивает в водоворот интриг, подозрений и лжи. Страна: Франция, Бельгия Студия: Canal+ , Ciné, Curiosa Films, Films Sous Influence, France 2 Cinéma, France Télévision, Le Tax Shelter du Gouvernement Fédéral de Belgique, Région Provence Côte d'Azur, SND, uFund, UMédia Продолжительность: 01:24:25 Перевод: Дублированный | Нарышкин (OKKO) Субтитры: Русские (Forced, full), французские Файл Формат: Matroska Качество: WEB-DLRip 720p Видео: 1280x534 at 24.000 fps, x264@L4.1, ~2569 kbps Аудио: AC3, 6 ch, ~384 kbps - | Русский | Формат субтитров: softsub (SRT) ***Рип от: -=DoMiNo=- *** Дебандинг, зерно.
[+] M/Ix264 : frame I:766 Avg QP:15.34 size: 64308 x264 : frame P:27818 Avg QP:17.22 size: 25582 x264 : frame B:92982 Avg QP:18.92 size: 9308 General Unique ID : 168438672730373869386322102979570191520 (0x7EB81BBD82499DA57B27A2F04D484CA0) Complete name : R:Un.coup.de.des.2023.DUB.WEB-DLRip.720p.x264.seleZen.mkv Format : Matroska Format version : Version 4 File size : 1.74 GiB Duration : 1 h 24 min Overall bit rate : 2 955 kb/s Frame rate : 24.000 FPS Movie name : Un.coup.de.des.2023.DUB.WEB-DLRip.720p.x264.seleZen Encoded date : 2024-05-30 08:18:15 UTC Writing application : mkvmerge v84.0 ('Sleeper') 64-bit Writing library : libebml v1.4.5 + libmatroska v1.7.1 Cover : Yes Attachments : cover.jpg / small_cover.jpg Video ID : 1 Format : AVC Format/Info : Advanced Video Codec Format profile : High@L4.1 Format settings : CABAC / 5 Ref Frames Format settings, CABAC : Yes Format settings, Reference : 5 frames Codec ID : V_MPEG4/ISO/AVC Duration : 1 h 24 min Bit rate : 2 569 kb/s Width : 1 280 pixels Height : 534 pixels Display aspect ratio : 2.40:1 Frame rate mode : Constant Frame rate : 24.000 FPS Color space : YUV Chroma subsampling : 4:2:0 Bit depth : 8 bits Scan type : Progressive Bits/(Pixel*Frame) : 0.157 Stream size : 1.51 GiB (87%) Title : -=DoMiNo=- Writing library : x264 core 164 r3191 -DoMiNo Encoding settings : cabac=1 / ref=5 / deblock=1:-3:-2 / analyse=0x3:0x133 / me=umh / subme=10 / psy=1 / psy_rd=1.00:0.05 / mixed_ref=1 / me_range=32 / chroma_me=1 / trellis=2 / 8x8dct=1 / cqm=0 / deadzone=21,11 / fast_pskip=0 / chroma_qp_offset=-3 / threads=17 / lookahead_threads=4 / sliced_threads=0 / nr=0 / decimate=1 / interlaced=0 / bluray_compat=0 / constrained_intra=0 / bframes=10 / b_pyramid=2 / b_adapt=2 / b_bias=0 / direct=3 / weightb=1 / open_gop=0 / weightp=2 / keyint=240 / keyint_min=24 / scenecut=40 / intra_refresh=0 / rc_lookahead=60 / rc=crf / mbtree=0 / crf=19.0 / qcomp=0.60 / qpmin=0 / qpmax=69 / qpstep=4 / vbv_maxrate=50000 / vbv_bufsize=62500 / crf_max=0.0 / nal_hrd=none / filler=0 / ip_ratio=1.35 / pb_ratio=1.25 / aq=1:1.00 Language : English Default : Yes Forced : No Audio ID : 2 Format : AC-3 Format/Info : Audio Coding 3 Commercial name : Dolby Digital Codec ID : A_AC3 Duration : 1 h 24 min Bit rate mode : Constant Bit rate : 384 kb/s Channel(s) : 6 channels Channel layout : L R C LFE Ls Rs Sampling rate : 48.0 kHz Frame rate : 31.250 FPS (1536 SPF) Compression mode : Lossy Stream size : 232 MiB (13%) Title : Дублированный | Нарышкин (OKKO) Language : Russian Service kind : Complete Main Default : Yes Forced : No Dialog Normalization : -31 dB cmixlev : -3.0 dB surmixlev : -6 dB dialnorm_Average : -31 dB dialnorm_Minimum : -31 dB dialnorm_Maximum : -31 dB Text #1 ID : 3 Format : UTF-8 Codec ID : S_TEXT/UTF8 Codec ID/Info : UTF-8 Plain Text Duration : 1 h 20 min Bit rate : 2 b/s Frame rate : 0.006 FPS Count of elements : 30 Stream size : 1.40 KiB (0%) Title : Forced Language : Russian Default : No Forced : No Text #2 ID : 4 Format : UTF-8 Codec ID : S_TEXT/UTF8 Codec ID/Info : UTF-8 Plain Text Duration : 1 h 20 min Bit rate : 89 b/s Frame rate : 0.227 FPS Count of elements : 1097 Stream size : 52.8 KiB (0%) Title : Full Language : Russian Default : No Forced : No Text #3 ID : 5 Format : UTF-8 Codec ID : S_TEXT/UTF8 Codec ID/Info : UTF-8 Plain Text Duration : 1 min 34 s Bit rate : 32 b/s Frame rate : 0.202 FPS Count of elements : 19 Stream size : 380 Bytes (0%) Title : Forced Language : French (FR) Default : No Forced : Yes Text #4 ID : 6 Format : UTF-8 Codec ID : S_TEXT/UTF8 Codec ID/Info : UTF-8 Plain Text Duration : 1 h 23 min Bit rate : 62 b/s Frame rate : 0.217 FPS Count of elements : 1084 Stream size : 38.0 KiB (0%) Title : SDH Language : French (FR) Default : No Forced : No Menu 00:00:00.000 : en:Chapter 01 00:05:50.000 : en:Chapter 02 00:11:40.000 : en:Chapter 03 00:17:30.000 : en:Chapter 04 00:23:20.000 : en:Chapter 05 00:29:10.000 : en:Chapter 06 00:35:00.000 : en:Chapter 07 00:40:50.000 : en:Chapter 08 00:46:40.000 : en:Chapter 09 00:52:30.000 : en:Chapter 10 00:58:20.000 : en:Chapter 11 01:04:10.000 : en:Chapter 12 01:10:00.000 : en:Chapter 13 01:15:50.000 : en:Chapter 14 01:21:40.000 : en:Chapter 15
Релиз: Присоединяйся к: Кликай на баннеры.

Всего файлов в раздаче: 1 
Un.coup.de.des.2023.DUB.WEB-DLRip.720p.x264.seleZen.mkv1.74 GB

Похожие раздачи по запросу - Цена
2024-01-15 magnet Цена доверия [2023, драма, фантастика, WEBRip-AVC] 1.46 GB ↑ 0 ↓ 0
2024-01-14 magnet Цена доверия (2023) WEBRip от MegaPeer 1.37 GB ↑ 0 ↓ 0

Кто качает (только для создателя раздачи и модераторов):
ПользовательIP:портОтдалПринялОстатокСидируетТоррент клиентОбновился
1 Аноним 176.224.160.46:36417 0.00 B 1.74 GB 1.68 GB нет -qB4390- 23:28 2024-06-14

Комментарии


Зарегистрируйтесь чтобы добавить комментарий
Торрент клиент
byTorrent - программа для загрузки торрент-файлов.

Скачать byTorrent.exe (1,5 МБ)

Скачать byTorrent.zip (0,6 МБ)

Поддержи torrent.by
российских рублей
(300 российских рублей это 4$)

Обратная связь rss

End game ©