↑↓torrent.by
Поиск
Логин:  Регистрация
Пароль:

Каскадёры / The Fall Guy (2024) WEB-DL 1080p | D, P

download Скачать торрент-файл   magnet Магнитная ссылка Размер: 8.97 GB Раздают: 2 Качают: 6 Добавлен: 2024-05-30 17:00
Пиры будут получены из сети DHT
Последний сидер был замечен сегодня в 12:28
Информация о фильме Название: Каскадёры Оригинальное название: The Fall Guy Год выхода: 2024 Жанр: боевик, драма, комедия Режиссер: Дэвид Литч В ролях: Райан Гослинг, Эмили Блант, Аарон Тейлор-Джонсон, Ханна Уэддингхэм, Тереза Палмер, Стефани Сюй, Уинстон Дьюк, Бен Найт, Матузе, Адам Данн О фильме: Потрёпанный жизнью каскадёр Колт нехотя возвращается в профессию, чтобы помочь бывшей девушке Джоди снять первый фильм — блокбастер с многомиллионным бюджетом. Ситуация осложняется пропажей исполнителя главной роли. Страна: США, Австралия, Канада Студия: 87North, Australian Government, Management 360, South Australian Film Corporation, Universal Pictures Продолжительность: 02:07:02 Перевод1: Профессиональный (профессиональный многоголосый) | TVShows Перевод2: Дублированный (неофициальный) | Red Head Sound Файл Формат: MKV Качество: WEB-DL 1080p Видео: MPEG-4 AVC, 8698 Кбит/с, 1920x800 Аудио 1: Русский (AC3, 6 ch, 448 Кбит/с) | TVShows Аудио 2: Русский (AC3, 2 ch, 192 Кбит/с) | Red Head Sound Аудио 3: Английский (E-AC3+Atmos, 6 ch, 768 Кбит/с) Субтитры: Английские Семпл
[+] Скриншоты
[+] MediaInfo:General Unique ID : 205199766664367386843406146816745333682 (0x9A60099AE971C373B8B50077B54EE3B2) Complete name : The.Fall.Guy.2024.1080p.TVS.RHS.mkv Format : Matroska Format version : Version 4 File size : 8.97 GiB Duration : 2 h 7 min Overall bit rate : 10.1 Mb/s Frame rate : 23.976 FPS Encoded date : 2024-05-30 08:39:07 UTC Writing application : mkvmerge v71.1.0 ('Fortitude') 64-bit Writing library : libebml v1.4.4 + libmatroska v1.7.1 Video ID : 1 Format : AVC Format/Info : Advanced Video Codec Format profile : High@L4 Format settings : CABAC / 4 Ref Frames Format settings, CABAC : Yes Format settings, Reference frames : 4 frames Codec ID : V_MPEG4/ISO/AVC Duration : 2 h 7 min Bit rate mode : Constant Bit rate : 8 698 kb/s Nominal bit rate : 10 000 kb/s Width : 1 920 pixels Height : 800 pixels Display aspect ratio : 2.40:1 Frame rate mode : Constant Frame rate : 23.976 (24000/1001) FPS Color space : YUV Chroma subsampling : 4:2:0 Bit depth : 8 bits Scan type : Progressive Bits/(Pixel*Frame) : 0.236 Stream size : 7.72 GiB (86%) Language : English Default : Yes Forced : No Color range : Limited Color primaries : BT.709 Transfer characteristics : BT.709 Matrix coefficients : BT.709 Audio #1 ID : 2 Format : AC-3 Format/Info : Audio Coding 3 Commercial name : Dolby Digital Codec ID : A_AC3 Duration : 2 h 6 min Bit rate mode : Constant Bit rate : 448 kb/s Channel(s) : 6 channels Channel layout : L R C LFE Ls Rs Sampling rate : 48.0 kHz Frame rate : 31.250 FPS (1536 SPF) Compression mode : Lossy Stream size : 406 MiB (4%) Title : MVO TVShows Language : Russian Service kind : Complete Main Default : Yes Forced : No Audio #2 ID : 3 Format : AC-3 Format/Info : Audio Coding 3 Commercial name : Dolby Digital Codec ID : A_AC3 Duration : 2 h 6 min Bit rate mode : Constant Bit rate : 192 kb/s Channel(s) : 2 channels Channel layout : L R Sampling rate : 48.0 kHz Frame rate : 31.250 FPS (1536 SPF) Compression mode : Lossy Stream size : 174 MiB (2%) Title : DUB Red Head Sound Language : Russian Service kind : Complete Main Default : No Forced : No Audio #3 ID : 4 Format : E-AC-3 JOC Format/Info : Enhanced AC-3 with Joint Object Coding Commercial name : Dolby Digital Plus with Dolby Atmos Codec ID : A_EAC3 Duration : 2 h 6 min Bit rate mode : Constant Bit rate : 768 kb/s Channel(s) : 6 channels Channel layout : L R C LFE Ls Rs Sampling rate : 48.0 kHz Frame rate : 31.250 FPS (1536 SPF) Compression mode : Lossy Delay relative to video : 13 ms Stream size : 694 MiB (8%) Language : English Service kind : Complete Main Default : No Forced : No Complexity index : 16 Number of dynamic objects : 15 Bed channel count : 1 channel Bed channel configuration : LFE Text #1 ID : 5 Format : UTF-8 Codec ID : S_TEXT/UTF8 Codec ID/Info : UTF-8 Plain Text Duration : 2 h 6 min Bit rate : 92 b/s Frame rate : 0.350 FPS Count of elements : 2648 Stream size : 85.6 KiB (0%) Language : English Default : No Forced : No Text #2 ID : 6 Format : UTF-8 Codec ID : S_TEXT/UTF8 Codec ID/Info : UTF-8 Plain Text Duration : 2 h 6 min Bit rate : 103 b/s Frame rate : 0.389 FPS Count of elements : 2948 Stream size : 96.1 KiB (0%) Title : SDH Language : English Default : No Forced : No Menu 00:00:00.000 : en:Chapter 01 00:05:53.687 : en:Chapter 02 00:11:19.804 : en:Chapter 03 00:16:34.160 : en:Chapter 04 00:21:20.321 : en:Chapter 05 00:27:00.120 : en:Chapter 06 00:35:48.398 : en:Chapter 07 00:40:11.161 : en:Chapter 08 00:44:50.607 : en:Chapter 09 00:54:12.293 : en:Chapter 10 00:59:57.931 : en:Chapter 11 01:06:10.804 : en:Chapter 12 01:12:10.622 : en:Chapter 13 01:18:48.937 : en:Chapter 14 01:27:36.131 : en:Chapter 15 01:32:47.317 : en:Chapter 16 01:40:14.639 : en:Chapter 17 01:45:10.852 : en:Chapter 18 01:50:55.655 : en:Chapter 19 01:59:36.760 : en:Chapter 20

Всего файлов в раздаче: 1 
The.Fall.Guy.2024.1080p.TVS.RHS.mkv8.97 GB

Похожие раздачи по запросу - Каскадёры
2024-06-10 magnet Каскадёры / The Fall Guy (2024) UHD WEB-DL HEVC 2160p | 4K | HDR | Dolby Vision Profile 8 | D, P 24.51 GB ↑ 0 ↓ 5
2024-06-10 magnet Каскадёры / The Fall Guy (2024) UHD WEB-DL HEVC 2160p | 4K | SDR | D, P 16.06 GB ↑ 0 ↓ 3
2024-06-10 magnet Каскадёры / The Fall Guy (2024) UHD WEB-DL HEVC 2160p | 4K | Dolby Vision TV | D, P 15.58 GB ↑ 0 ↓ 2
2024-06-08 magnet Каскадёры / The Fall Guy (2024) WEB-DLRip-AVC от ExKinoRay | D 2.19 GB ↑ 0 ↓ 3
2024-06-01 magnet Каскадёры / Каскадер / The Fall Guy (2024) WEB-DL-HEVC 2160p | 4K | SDR | D | Line | UKR 9.85 GB ↑ 0 ↓ 0
2024-05-31 magnet Каскадёры / The Fall Guy (2024) WEB-DLRip-AVC | D, P 1.09 GB ↑ 0 ↓ 0
2024-05-30 magnet Каскадёры / Каскадер / The Fall Guy (2024) WEB-DL 1080p | D | Line | UKR 8.57 GB ↑ 0 ↓ 0

Кто качает (только для создателя раздачи и модераторов):
ПользовательIP:портОтдалПринялОстатокСидируетТоррент клиентОбновился
1 Аноним 46.138.51.129:57106 4.97 GB 0.00 B 0.00 B да -UT360W- 12:28 2024-06-16
2 Аноним 46.158.162.159:8621 385.89 MB 16.00 kB 0.00 B да R30----- 12:23 2024-06-16
3 Аноним 109.206.43.13:32000 624.00 kB 1.04 GB 8.86 GB нет -qB4320- 12:20 2024-06-16
4 Аноним 94.41.210.142:34363 6.90 MB 8.72 GB 8.89 GB нет -qB4390- 12:35 2024-06-16
5 Аноним 250.238.24.95:35135 11.35 MB 8.50 GB 8.89 GB нет -qB4390- 12:30 2024-06-16
6 Аноним 37.122.10.179:32000 2.88 MB 3.69 GB 8.89 GB нет -qB4390- 12:12 2024-06-16
7 Аноним 35.10.165.95:32000 3.75 MB 5.37 GB 8.89 GB нет -qB4390- 12:33 2024-06-16
8 Аноним 19.57.62.92:56923 4.83 MB 9.07 GB 8.89 GB нет -qB4390- 12:23 2024-06-16

Комментарии


Зарегистрируйтесь чтобы добавить комментарий
Торрент клиент
byTorrent - программа для загрузки торрент-файлов.

Скачать byTorrent.exe (1,5 МБ)

Скачать byTorrent.zip (0,6 МБ)

Поддержи torrent.by
российских рублей
(300 российских рублей это 4$)

Обратная связь rss

End game ©