↑↓torrent.by
Поиск
Логин:  Регистрация
Пароль:

Леттеркенни / Letterkenny [S04] (2017) WEBRip 1080p | Jaskier

download Скачать торрент-файл   magnet Магнитная ссылка Размер: 6.12 GB Добавлен: 2024-05-30 17:00
Пиры будут получены из сети DHT
Последний сидер был замечен 2024-06-08 12:22
Название: Леттеркенни Оригинальное название: Letterkenny Год выхода: 2017 Производство: Канада / New Metric Media Жанр: Комедия Перевод: Профессиональный многоголосый Продолжительность: 07х ~00:25:00 Режиссёры: Джейкоб Тирни, Тео Ким, Спенсер Мэйби В ролях: Джаред Кисо, Нэйтан Дэйлз, Мишель Майлетт, Эндрю Херр, К. Тревор Уилсон, Дилан Плэйфейр, Тайлер Джонстон, Ивэн Штерн, Лиза Кодрингтон Описание: В центре сюжета - Уэйн и его приятель Дэрил. Они живут на своей ферме в небольшом городке Леттеркенни, что в провинции Онтарио, и намерены защищать свой сельский мир от надвигающейся урбанизации. Всё население Леттеркенни можно условно поделить на три группы: панки, хоккеисты и простые работяги. Все эти группы постоянно не в ладах друг с другом, и зачастую это приводит к нелепым ситуациям и даже к рукоприкладству. Формат: MKV Качество: WEBRip 1080p Видео: MPEG4 AVC / ~5116 kbps / 1920x1080 / 0.103 Бит/(Пиксели*Кадры) / 23.976 fps Аудио 01: AAC, 2 ch, 107 kbps | Русский, MVO | Jaskier | 18+ Аудио 02: AAC, 6 ch, 64 kbps | Original | Субтитры: Английские
[+] MediainfoFormat : Matroska Format version : Version 4 File size : 861 MiB Duration : 22 min 45 s Overall bit rate : 5 289 kb/s Encoded date : UTC 2023-04-18 03:45:49 Writing application : mkvmerge v51.0.0 ('I Wish') 64-bit Writing library : libebml v1.4.0 + libmatroska v1.6.2 Video ID : 1 Format : AVC Format/Info : Advanced Video Codec Format profile : High@L4 Format settings : CABAC / 4 Ref Frames Format settings, CABAC : Yes Format settings, Reference frames : 4 frames Codec ID : V_MPEG4/ISO/AVC Duration : 22 min 44 s Bit rate : 5 116 kb/s Width : 1 920 pixels Height : 1 080 pixels Display aspect ratio : 16:9 Frame rate mode : Constant Frame rate : 23.976 (24000/1001) FPS Color space : YUV Chroma subsampling : 4:2:0 Bit depth : 8 bits Scan type : Progressive Bits/(Pixel*Frame) : 0.103 Stream size : 832 MiB (97%) Default : Yes Forced : No Audio #1 ID : 2 Format : AAC LC Format/Info : Advanced Audio Codec Low Complexity Codec ID : A_AAC-2 Duration : 22 min 44 s Bit rate : 107 kb/s Channel(s) : 2 channels Channel layout : L R Sampling rate : 48.0 kHz Frame rate : 46.875 FPS (1024 SPF) Compression mode : Lossy Stream size : 17.3 MiB (2%) Language : Russian Default : Yes Forced : No Audio #2 ID : 3 Format : AAC LC SBR Format/Info : Advanced Audio Codec Low Complexity with Spectral Band Replication Commercial name : HE-AAC Format settings : Explicit Codec ID : A_AAC-2 Duration : 22 min 45 s Bit rate : 64.0 kb/s Channel(s) : 2 channels Channel layout : L R Sampling rate : 48.0 kHz Frame rate : 23.438 FPS (2048 SPF) Compression mode : Lossy Stream size : 10.4 MiB (1%) Language : English Default : No Forced : No Text ID : 4 Format : UTF-8 Codec ID : S_TEXT/UTF8 Codec ID/Info : UTF-8 Plain Text Duration : 22 min 27 s Bit rate : 97 b/s Frame rate : 0.333 FPS Count of elements : 449 Stream size : 16.0 KiB (0%) Language : English Default : No Forced : No
[+] Скриншоты

Всего файлов в раздаче: 7 
Letterkenny.S04E01.Never.Work.a.Day.in.Your.Life.1080p.HULU.WEB-DL.AAC2.0.H.264-NTb.mkv860.71 MB
Letterkenny.S04E02.A.Fuss.at.the.Golf.Course.1080p.HULU.WEB-DL.AAC2.0.H.264-NTb.mkv969.43 MB
Letterkenny.S04E03.Way.to.a.Man's.Heart.1080p.HULU.WEB-DL.AAC2.0.H.264-NTb.mkv961.45 MB
Letterkenny.S04E04.Letterkenny.Talent.Show.1080p.HULU.WEB-DL.AAC2.0.H.264-NTb.mkv881.57 MB
Letterkenny.S04E05.The.Letterkenny.Leave.1080p.HULU.WEB-DL.AAC2.0.H.264-NTb.mkv895.19 MB
Letterkenny.S04E06.Great.Day.for.Thunder.Bay.1080p.HULU.WEB-DL.AAC2.0.H.264-NTb.mkv883.74 MB
Letterkenny.S04E07.Super.Hard.Easter.1080p.HULU.WEB-DL.AAC2.0.H.264-NTb.mkv819.50 MB

Похожие раздачи по запросу - Леттеркенни
2024-06-03 magnet Леттеркенни / Letterkenny [S12] (2023) WEB-DL 1080p | Jaskier 5.55 GB ↑ 0 ↓ 0
2024-06-02 magnet Леттеркенни / Letterkenny [S10] (2021) WEBRip 1080p | Jaskier 6.01 GB ↑ 0 ↓ 0
2024-06-02 magnet Леттеркенни / Letterkenny [S11] (2022) WEBRip 1080p | Jaskier 5.47 GB ↑ 0 ↓ 0
2024-06-02 magnet Леттеркенни / Letterkenny [S07] (2019) WEBRip 1080p | Jaskier 4.13 GB ↑ 0 ↓ 0
2024-06-02 magnet Леттеркенни / Letterkenny [S08] (2019) WEBRip 1080p | Jaskier 6.30 GB ↑ 0 ↓ 0
2024-06-02 magnet Леттеркенни / Letterkenny [S09] (2020) WEBRip 1080p | Jaskier 4.58 GB ↑ 0 ↓ 0
2024-05-31 magnet Леттеркенни / Letterkenny [S06] (2018) WEBRip 1080p | Jaskier 6.56 GB ↑ 0 ↓ 0

Комментарии


Зарегистрируйтесь чтобы добавить комментарий
Торрент клиент
byTorrent - программа для загрузки торрент-файлов.

Скачать byTorrent.exe (1,5 МБ)

Скачать byTorrent.zip (0,6 МБ)

Поддержи torrent.by
российских рублей
(300 российских рублей это 4$)

Обратная связь rss

End game ©