↑↓torrent.by
Поиск
Логин:  Регистрация
Пароль:

Anthony Colette - Irréelle [24-bit Hi-Res] (2024) FLAC

download Скачать торрент-файл   magnet Магнитная ссылка Размер: 403.56 MB Добавлен: 2024-05-31 05:00
Пиры будут получены из сети DHT
Последний сидер был замечен 2024-06-01 00:31
Название: Irréelle Исполнитель: Anthony Colette Год: 2024 Жанр: French-Chanson Издатель (лейбл): JLA Productions Продолжительность: 00:33:41 Формат/Кодек: FLAC Тип рипа: Tracks Битрейт аудио: Lossless Разрядность: 24 Bit/44,1 kHz
[+] Трек-лист 01. Allô (00:03:06) 02. Dans La Vie Je Mens (00:03:10) 03. Si On S'aime (00:02:44) 04. La Noche (00:03:01) 05. J'reste À Ma Place (00:02:28) 06. Et Puis Il Y A Pire (00:02:59) 07. Mieux Qu'au Cinéma (00:02:10) 08. Trahie (00:02:56) 09. Zig Zag (00:02:44) 10. Je Plane (00:02:41) 11. Pas Le Time (00:03:13) 12. Nuit D'ivresse (00:02:29)
[+] DRM foobar2000 1.5.5 / Замер динамического диапазона (DR) 1.1.1 ------------------------------------------------------------------------------- Анализ: Anthony Colette / Irréelle -------------------------------------------------------------------------------- DR Пики RMS Продолжительность трека -------------------------------------------------------------------------------- DR5 -0.10 дБ -6.35 дБ 3:06 01-Allô DR5 -0.10 дБ -5.97 дБ 3:10 02-Dans La Vie Je Mens DR4 -0.10 дБ -7.21 дБ 2:44 03-Si On S'aime DR5 -0.10 дБ -6.87 дБ 3:01 04-La Noche DR5 -0.10 дБ -7.23 дБ 2:28 05-J'reste À Ma Place DR5 -0.10 дБ -6.00 дБ 2:59 06-Et Puis Il Y A Pire DR5 -0.10 дБ -6.30 дБ 2:10 07-Mieux Qu'au Cinéma DR5 -0.10 дБ -5.97 дБ 2:56 08-Trahie DR5 -0.10 дБ -6.90 дБ 2:44 09-Zig Zag DR6 -0.10 дБ -7.01 дБ 2:41 10-Je Plane DR5 -0.10 дБ -6.64 дБ 3:13 11-Pas Le Time DR5 -0.10 дБ -6.29 дБ 2:29 12-Nuit D'ivresse -------------------------------------------------------------------------------- Количество треков: 12 Реальные значения DR: DR5 Частота: 44100 Гц Каналов: 2 Разрядность: 24 Битрейт: 1649 кбит/с Кодек: FLAC ================================================================================
Время раздачи: 24/7 (минимум до появления первых 3-5 скачавших, на раздачи не возвращаюсь) Первое правило участника файлообмена: "Скачал сам - дай скачать другому!"

Всего файлов в раздаче: 13 
01. Allô.flac37.07 MB
02. Dans la vie je mens.flac39.86 MB
03. Si on s'aime.flac32.10 MB
04. La Noche.flac35.61 MB
05. J'reste à ma place.flac29.12 MB
06. Et puis il y a pire.flac35.55 MB
07. Mieux qu'au cinéma.flac27.29 MB
08. Trahie.flac34.26 MB
09. Zig Zag.flac32.97 MB
10. Je plane.flac32.22 MB
Показать все файлы

Комментарии


Зарегистрируйтесь чтобы добавить комментарий
Торрент клиент
byTorrent - программа для загрузки торрент-файлов.

Скачать byTorrent.exe (1,5 МБ)

Скачать byTorrent.zip (0,6 МБ)

Поддержи torrent.by
российских рублей
(300 российских рублей это 4$)

Обратная связь rss

End game ©