↑↓torrent.by
Поиск
Логин:  Регистрация
Пароль:

Arkells - Disco Loadout [24-bit Hi-Res, Volume 1] (2024) FLAC

download Скачать торрент-файл   magnet Магнитная ссылка Размер: 900.94 MB Добавлен: 2024-05-31 05:00
Пиры будут получены из сети DHT
Последний сидер был замечен 2024-05-31 18:52
Название: Disco Loadout (Volume 1) Исполнитель: Arkells Год: 2024 Жанр: Pop, Rock Издатель (лейбл): Arkells Music ROW Продолжительность: 00:39:44 Формат/Кодек: FLAC Тип рипа: Tracks Битрейт аудио: Lossless Разрядность: 24 Bit/96 kHz
[+] Трек-лист 01. Dancing On My Own (00:03:50) 02. I Want You Back (00:03:05) 03. You Make My Dreams (Come True) (00:02:34) 04. As It Was (00:02:50) 05. Sledgehammer (00:03:46) 06. Gimme! Gimme! Gimme! (A Man After Midnight) (00:04:30) 07. 9 To 5 (00:04:46) 08. I Wanna Dance With Somebody (Who Loves Me) (00:03:45) 09. Dancing In The Dark (00:03:21) 10. The Power Of Love (00:03:29) 11. Dancing Queen (00:03:48)
[+] DRM foobar2000 1.5.5 / Замер динамического диапазона (DR) 1.1.1 ------------------------------------------------------------------------------- Анализ: Arkells / Disco Loadout (Volume 1) -------------------------------------------------------------------------------- DR Пики RMS Продолжительность трека -------------------------------------------------------------------------------- DR4 -0.40 дБ -5.66 дБ 3:50 01-Dancing On My Own DR5 -0.40 дБ -6.60 дБ 3:05 02-I Want You Back DR5 -0.40 дБ -6.15 дБ 2:34 03-You Make My Dreams (Come True) DR5 -0.40 дБ -6.05 дБ 2:50 04-As It Was DR5 -0.40 дБ -6.63 дБ 3:46 05-Sledgehammer DR5 -0.40 дБ -5.98 дБ 4:30 06-Gimme! Gimme! Gimme! (A Man After Midnight) DR5 -0.40 дБ -6.46 дБ 4:46 07-9 To 5 DR5 -0.40 дБ -5.97 дБ 3:45 08-I Wanna Dance With Somebody (Who Loves Me) DR5 -0.40 дБ -5.83 дБ 3:21 09-Dancing In The Dark DR5 -0.40 дБ -6.14 дБ 3:29 10-The Power Of Love DR5 -0.40 дБ -5.80 дБ 3:48 11-Dancing Queen -------------------------------------------------------------------------------- Количество треков: 11 Реальные значения DR: DR5 Частота: 96000 Гц Каналов: 2 Разрядность: 24 Битрейт: 3296 кбит/с Кодек: FLAC ================================================================================
Время раздачи: 24/7 (минимум до появления первых 3-5 скачавших, на раздачи не возвращаюсь) Первое правило участника файлообмена: "Скачал сам - дай скачать другому!"

Всего файлов в раздаче: 12 
01. Dancing On My Own.flac86.45 MB
02. I Want You Back.flac68.01 MB
03. You Make My Dreams (Come True).flac57.21 MB
04. As It Was.flac64.78 MB
05. Sledgehammer.flac86.13 MB
06. Gimme! Gimme! Gimme! (A Man After Midnight).flac99.57 MB
07. 9 To 5.flac105.74 MB
08. I Wanna Dance With Somebody (Who Loves Me).flac86.74 MB
09. Dancing In The Dark.flac76.37 MB
10. The Power Of Love.flac80.04 MB
Показать все файлы

Комментарии


Зарегистрируйтесь чтобы добавить комментарий
Торрент клиент
byTorrent - программа для загрузки торрент-файлов.

Скачать byTorrent.exe (1,5 МБ)

Скачать byTorrent.zip (0,6 МБ)

Поддержи torrent.by
российских рублей
(300 российских рублей это 4$)

Обратная связь rss

End game ©