↑↓torrent.by
Поиск
Логин:  Регистрация
Пароль:

Bright Light Bright Light - Enjoy Youth [24-bit Hi-Res] (2024) FLAC

download Скачать торрент-файл   magnet Магнитная ссылка Размер: 502.37 MB Добавлен: 2024-05-31 05:00
Пиры будут получены из сети DHT
Последний сидер был замечен 2024-05-31 15:53
Название: Enjoy Youth Исполнитель: Bright Light Bright Light Год: 2024 Жанр: Electronic, Dance Издатель (лейбл): YSKWN! Продолжительность: 00:41:44 Формат/Кодек: FLAC Тип рипа: Tracks Битрейт аудио: Lossless Разрядность: 24 Bit/44,1 kHz
[+] Трек-лист 01. You Want My … (00:03:26) 02. Snap! (00:03:59) 03. Revived (00:03:15) 04. Every Emotion (00:03:32) 05. Boys Etc. (00:03:32) 06. Heartslap (00:03:09) 07. Sweet Release (00:03:08) 08. I Don't Know What I'm Gonna Do (00:04:02) 09. Down To One (00:03:02) 10. Sweetest Waste (00:03:05) 11. Keep (00:03:23) 12. Enjoy Youth (00:04:11)
[+] DRM foobar2000 1.5.5 / Замер динамического диапазона (DR) 1.1.1 ------------------------------------------------------------------------------ Анализ: Bright Light Bright Light / Enjoy Youth -------------------------------------------------------------------------------- DR Пики RMS Продолжительность трека -------------------------------------------------------------------------------- DR7 -0.51 дБ -9.39 дБ 3:26 01-You Want My … DR8 -0.51 дБ -10.53 дБ 3:59 02-Snap! DR8 -0.51 дБ -9.89 дБ 3:15 03-Revived DR8 -0.51 дБ -9.76 дБ 3:32 04-Every Emotion DR8 -1.00 дБ -9.69 дБ 3:32 05-Boys Etc. DR6 -0.51 дБ -8.45 дБ 3:09 06-Heartslap DR8 -0.37 дБ -9.92 дБ 3:08 07-Sweet Release DR8 0.00 дБ -10.33 дБ 4:02 08-I Don't Know What I'm Gonna Do DR7 -0.51 дБ -9.35 дБ 3:02 09-Down To One DR9 -0.51 дБ -10.27 дБ 3:05 10-Sweetest Waste DR6 -0.51 дБ -7.65 дБ 3:23 11-Keep DR8 -0.51 дБ -11.69 дБ 4:11 12-Enjoy Youth -------------------------------------------------------------------------------- Количество треков: 12 Реальные значения DR: DR8 Частота: 44100 Гц Каналов: 2 Разрядность: 24 Битрейт: 1581 кбит/с Кодек: FLAC ================================================================================
Время раздачи: 24/7 (минимум до появления первых 3-5 скачавших, на раздачи не возвращаюсь) Первое правило участника файлообмена: "Скачал сам - дай скачать другому!"

Всего файлов в раздаче: 13 
01. You Want My ….flac42.46 MB
02. Snap!.flac49.92 MB
03. Revived.flac38.16 MB
04. Every Emotion.flac42.64 MB
05. Boys Etc.flac44.25 MB
06. Heartslap.flac37.23 MB
07. Sweet Release.flac37.02 MB
08. I Don't Know What I'm Gonna Do.flac47.61 MB
09. Down To One.flac37.51 MB
10. Sweetest Waste.flac36.22 MB
Показать все файлы

Кто качает (только для создателя раздачи и модераторов): Локальные пиры отсутствуют

Комментарии


Зарегистрируйтесь чтобы добавить комментарий
Торрент клиент
byTorrent - программа для загрузки торрент-файлов.

Скачать byTorrent.exe (1,5 МБ)

Скачать byTorrent.zip (0,6 МБ)

Поддержи torrent.by
российских рублей
(300 российских рублей это 4$)

Обратная связь rss

End game ©