↑↓torrent.by
Поиск
Логин:  Регистрация
Пароль:

Blick Bassy - Mádibá Ni Mbondi [24-bit Hi-Res] (2024) FLAC

download Скачать торрент-файл   magnet Магнитная ссылка Размер: 526.86 MB Добавлен: 2024-05-31 05:00
Пиры будут получены из сети DHT
Последний сидер был замечен 2024-05-31 15:53
Название: Mádibá Ni Mbondi Исполнитель: Blick Bassy Год: 2024 Жанр: Rock, Alternative, Indie, Soul Издатель (лейбл): InFiné Продолжительность: 00:47:38 Формат/Кодек: FLAC Тип рипа: Tracks Битрейт аудио: Lossless Разрядность: 24 Bit/48 kHz
[+] Трек-лист CD 01: (00:11:26) 01. Mbondi (00:03:01) 02. Babog (00:02:46) 03. Mbenda (00:03:22) 04. Todè (00:02:17) CD 02: (00:36:12) 01. Bengue (00:03:33) 02. Loba (00:04:02) 03. Ndomè (00:02:51) 04. Li Yanga (00:02:43) 05. Wata (00:01:34) 06. Nop (00:02:48) 07. Hola Mè (00:04:09) 08. Séa (00:02:45) 09. Bissaï (00:03:10) 10. Touye (00:02:51) 11. Mètam (00:02:04) 12. Lep (00:03:42)
[+] DRM foobar2000 1.5.5 / Замер динамического диапазона (DR) 1.1.1 ------------------------------------------------------------------------------- Анализ: Blick Bassy / Mádibá Ni Mbondi -------------------------------------------------------------------------------- DR Пики RMS Продолжительность трека -------------------------------------------------------------------------------- DR11 0.00 дБ -16.12 дБ 3:01 01-Mbondi DR11 -0.63 дБ -15.16 дБ 2:46 02-Babog DR9 0.00 дБ -13.05 дБ 3:22 03-Mbenda DR12 0.00 дБ -14.24 дБ 2:17 04-Todè -------------------------------------------------------------------------------- Количество треков: 4 Реальные значения DR: DR11 Частота: 48000 Гц Каналов: 2 Разрядность: 24 Битрейт: 1537 кбит/с Кодек: FLAC ================================================================================ -------------------------------------------------------------------------------- Анализ: Blick Bassy / Mádibá Ni Mbondi -------------------------------------------------------------------------------- DR Пики RMS Продолжительность трека -------------------------------------------------------------------------------- DR8 -0.47 дБ -10.58 дБ 3:33 01-Bengue DR9 -0.46 дБ -11.47 дБ 4:02 02-Loba DR9 -0.47 дБ -11.12 дБ 2:51 03-Ndomè DR8 -0.47 дБ -11.13 дБ 2:43 04-Li Yanga DR9 -0.46 дБ -14.57 дБ 1:34 05-Wata DR9 -0.47 дБ -12.28 дБ 2:48 06-Nop DR8 -0.47 дБ -11.09 дБ 4:09 07-Hola Mè DR8 -0.47 дБ -11.31 дБ 2:45 08-Séa DR9 -0.46 дБ -12.08 дБ 3:10 09-Bissaï DR8 -0.46 дБ -12.11 дБ 2:51 10-Touye DR9 -0.46 дБ -12.61 дБ 2:04 11-Mètam DR9 -0.47 дБ -12.54 дБ 3:42 12-Lep -------------------------------------------------------------------------------- Количество треков: 12 Реальные значения DR: DR8 Частота: 48000 Гц Каналов: 2 Разрядность: 24 Битрейт: 1549 кбит/с Кодек: FLAC ================================================================================
Время раздачи: 24/7 (минимум до появления первых 3-5 скачавших, на раздачи не возвращаюсь) Первое правило участника файлообмена: "Скачал сам - дай скачать другому!"

Всего файлов в раздаче: 17 
Disc 1\01. Mbondi.flac33.73 MB
Disc 1\02. Babog.flac29.69 MB
Disc 1\03. Mbenda.flac37.16 MB
Disc 1\04. Todè.flac25.22 MB
Disc 2\01. Bengue.flac40.61 MB
Disc 2\02. LoBa.flac45.07 MB
Disc 2\03. Ndomè.flac30.49 MB
Disc 2\04. Li Yanga.flac30.69 MB
Disc 2\05. Wata.flac16.01 MB
Disc 2\06. Nop.flac30.77 MB
Показать все файлы

Кто качает (только для создателя раздачи и модераторов): Локальные пиры отсутствуют

Комментарии


Зарегистрируйтесь чтобы добавить комментарий
Торрент клиент
byTorrent - программа для загрузки торрент-файлов.

Скачать byTorrent.exe (1,5 МБ)

Скачать byTorrent.zip (0,6 МБ)

Поддержи torrent.by
российских рублей
(300 российских рублей это 4$)

Обратная связь rss

End game ©