↑↓torrent.by
Поиск
Логин:  Регистрация
Пароль:

Калимба [01x01-04 из 08] (2024) WEBRip 720p от ExKinoRay

download Скачать торрент-файл   magnet Магнитная ссылка Размер: 5.30 GB Добавлен: 2024-05-31 05:00
Пиры будут получены из сети DHT
Последний сидер был замечен вчера в 22:19
Информация о фильме Название: Калимба Год выхода: 2024 Жанр: Драма, детектив Режиссер: Нурбек Эген В ролях: Фёдор Бондарчук, Алёна Михайлова, Сергей Гармаш, Пётр Скворцов, Елизавета Шакира, Сергей Горошко, Константин Плотников (II), Юлия Волкова, Сергей Городничий, София Сучкова, Михаил Хмуров, Камилла Келлер, Тимофей Ольков, Людмила Юлова, Елена Радевич, Ева Уильямс, Никита Брусов, Степан Пивкин О фильме: Амбициозный профессор психиатрии Виктор Мещерский проводит опасный психологический эксперимент, в рамках которого под ложным предлогом запирает в подвале жертв и их обидчиков, скрывая свои истинные цели. Последующее расследование расскажет о настоящих мотивах профессора, и свяжет воедино запутанные истории всех участников жестокого эксперимента. Страна: Россия Студия: студия К.Б.А. Язык: Русский Файл Формат: MKV Качество: WEBRip 720p Видео: MPEG-4 AVC, ~ 3200 Кбит/с, 1280x720, 25 кадр/с Звук: (AC3, 6 ch, 384 Кбит/с), (E-AC3, 6 ch, 384 Кбит/с) RUS Субтитры: Нет Продолжительность: 4 x ~ 00:50:00 Реклама: Отсутствует
[+] МИ General Unique ID : 63264571112094987974713400962876183264 (0x2F98502D5FDF4FB92666A670EE0012E0) Complete name : G:Kalimba.S01.2024.WEB-DL.720p.ExKinoRayKalimba.S01.E01.2024.WEB-DL.720p.ExKinoRay.mkv Format : Matroska Format version : Version 4 File size : 1.28 GiB Duration : 46 min 8 s Overall bit rate : 3 957 kb/s Encoded date : UTC 2024-05-15 23:41:06 Writing application : mkvmerge v56.1.0 ('My Friend') 64-bit Writing library : libebml v1.4.2 + libmatroska v1.6.4 Video ID : 1 Format : AVC Format/Info : Advanced Video Codec Format profile : High@L3.1 Format settings : CABAC / 3 Ref Frames Format settings, CABAC : Yes Format settings, Reference frames : 3 frames Codec ID : V_MPEG4/ISO/AVC Duration : 46 min 8 s Bit rate : 3 200 kb/s Width : 1 280 pixels Height : 720 pixels Display aspect ratio : 16:9 Frame rate mode : Constant Frame rate : 25.000 FPS Color space : YUV Chroma subsampling : 4:2:0 Bit depth : 8 bits Scan type : Progressive Bits/(Pixel*Frame) : 0.139 Stream size : 1.03 GiB (81%) Writing library : x264 core 164 r3095 baee400 Encoding settings : cabac=1 / ref=4 / deblock=1:-1:-1 / analyse=0x3:0x133 / me=umh / subme=9 / psy=1 / psy_rd=0.40:1.00 / mixed_ref=1 / me_range=24 / chroma_me=1 / trellis=0 / 8x8dct=1 / cqm=0 / deadzone=21,11 / fast_pskip=1 / chroma_qp_offset=-2 / threads=3 / lookahead_threads=1 / sliced_threads=0 / nr=0 / decimate=1 / interlaced=0 / bluray_compat=0 / stitchable=1 / constrained_intra=0 / bframes=8 / b_pyramid=1 / b_adapt=0 / b_bias=0 / direct=3 / weightb=1 / open_gop=0 / weightp=2 / keyint=75 / keyint_min=38 / scenecut=0 / intra_refresh=0 / rc_lookahead=40 / rc=2pass / mbtree=1 / bitrate=3200 / ratetol=1.0 / qcomp=0.80 / qpmin=1 / qpmax=69 / qpstep=4 / cplxblur=20.0 / qblur=0.5 / vbv_maxrate=4800 / vbv_bufsize=6400 / nal_hrd=none / filler=0 / ip_ratio=1.40 / aq=1:1.00 Language : Russian Default : Yes Forced : No Color range : Limited Color primaries : BT.709 Transfer characteristics : BT.709 Matrix coefficients : BT.709 Audio #1 ID : 2 Format : AC-3 Format/Info : Audio Coding 3 Commercial name : Dolby Digital Codec ID : A_AC3 Duration : 46 min 8 s Bit rate mode : Constant Bit rate : 384 kb/s Channel(s) : 6 channels Channel layout : L R C LFE Ls Rs Sampling rate : 48.0 kHz Frame rate : 31.250 FPS (1536 SPF) Compression mode : Lossy Delay relative to video : -80 ms Stream size : 127 MiB (10%) Language : Russian Service kind : Complete Main Default : Yes Forced : No Audio #2 ID : 3 Format : E-AC-3 Format/Info : Enhanced AC-3 Commercial name : Dolby Digital Plus Codec ID : A_EAC3 Duration : 46 min 8 s Bit rate mode : Constant Bit rate : 384 kb/s Channel(s) : 6 channels Channel layout : L R C LFE Ls Rs Sampling rate : 48.0 kHz Frame rate : 31.250 FPS (1536 SPF) Compression mode : Lossy Delay relative to video : -80 ms Stream size : 127 MiB (10%) Language : Russian Service kind : Complete Main Default : No Forced : No
[+] Скриншоты
Релиз от:

Всего файлов в раздаче: 4 
Kalimba.S01.E01.2024.WEB-DL.720p.ExKinoRay.mkv1.28 GB
Kalimba.S01.E02.2024.WEB-DL.720p.ExKinoRay.mkv1.37 GB
Kalimba.S01.E03.2024.WEB-DL.720p.ExKinoRay.mkv1.34 GB
Kalimba.S01.E04.2024.WEB-DL.720p.ExKinoRay.mkv1.32 GB

Похожие раздачи по запросу - Калимба
2024-06-17 magnet Калимба [01х01-06 из 08] (2024) WEBRip от Files-х 3.48 GB ↑ 0 ↓ 0
2024-06-17 magnet Калимба [01х01-06 из 08] (2024) WEBRip-AVC от Generalfilm | КПК 1.26 GB ↑ 0 ↓ 0
2024-06-14 magnet Калимба [01x01-06 из 08] (2024) WEBRip-HEVC 2160p | 4K | SDR 24.34 GB ↑ 0 ↓ 0
2024-06-13 magnet Калимба [01x01-06 из 08] (2024) WEBRip 720p от ExKinoRay 7.87 GB ↑ 0 ↓ 0
2024-06-13 magnet Калимба [01х01-06 из 08] (2024) WEBRip-AVC от Files-х 3.97 GB ↑ 0 ↓ 0
2024-06-13 magnet Калимба / Сезон: 1 / Серии: 1-6 из 8 [2024, драма, детектив, триллер, WEBRip-AVC] от Aleksan55 3.95 GB ↑ 0 ↓ 0
2024-06-13 magnet Калимба [01x01-06 из 08] (2024) WEBRip 1080p от ExKinoRay 11.42 GB ↑ 0 ↓ 0

Кто качает (только для создателя раздачи и модераторов): Локальные пиры отсутствуют

Комментарии


Зарегистрируйтесь чтобы добавить комментарий
Торрент клиент
byTorrent - программа для загрузки торрент-файлов.

Скачать byTorrent.exe (1,5 МБ)

Скачать byTorrent.zip (0,6 МБ)

Поддержи torrent.by
российских рублей
(300 российских рублей это 4$)

Обратная связь rss

End game ©