↑↓torrent.by
Поиск
Логин:  Регистрация
Пароль:

Угроза / Todos los nombres de Dios / All the Names of God (2023) BDRip 1080p от ELEKTRI4KA | D, P2

download Скачать торрент-файл   magnet Магнитная ссылка Размер: 9.36 GB Добавлен: 2024-05-31 05:00
Пиры будут получены из сети DHT
Последний сидер был замечен 2024-06-12 11:22
Информация о фильме Название: Угроза Оригинальное название: Todos los nombres de Dios / All the Names of God Год выхода: 2023 Жанр: боевик, триллер, драма, приключения Режиссер: Даниэль Кальпарсоро В ролях: Луис Тосар, Инма Куэста, Альберто Амман, Нурдин Батан, Роберто Энрикес, Патриция Вико, Лукас Набор, Фернандо Кайо, Антонио Буил Пюйо, Антонио Буиль, Фатима-Зора Мохамед, Интиссар Эль Мескин, Луис Фернандес де Эрибе, Жоан Соле, Анна Аларкон О фильме: В результате атаки террористов Санти оказывается в заложниках у единственного выжившего преступника, который превращает его в живую бомбу. Идущий по главному проспекту Мадрида в жилете со взрывчаткой, он не может останавливаться, иначе его подорвут в ту же секунду. Используя все возможные ресурсы, полиция, спецслужбы и даже журналисты должны объединить свои усилия, чтобы спасти его жизнь. Выпущено: Испания / Todos Los Nombres De Dios AIE, TriPictures, Second Gen Pictures Продолжительность: 01:46:00 Озвучивание #1: Дублированное | Кипарис Озвучивание #2: Профессиональное (двухголосое) | ViruseProject Файл Формат: MKV Качество: BDRip 1080p Видео: MPEG-4 AVC, 10.6 Mb/s, 1920x804 Аудио #1: Russian: AC3, 384 Kb/s (6 ch) | DUB | Kiparis Аудио #2: Russian: E-AC3, 384 Kb/s (6 ch) | DUB | Kiparis Аудио #3: Russian: AC3, 640 Kb/s (6 ch) | DVO | ViruseProject Аудио #4: Spanish: AC3, 640 Kb/s (6 ch) | Original Субтитры: Russian (Forced, Full), English, Spanish Дополнительно: Сохранены оригинальные чаптеры. Релиз группы:
[+] MediaInfo:Complete name : Ugroza.2023.BDRip.1080p.ELEKTRI4KA.mkv Format : Matroska Format version : Version 4 File size : 9.36 GiB Duration : 1 h 46 min Overall bit rate : 12.6 Mb/s Movie name : Ugroza.2023.BDRip.1080p.ELEKTRI4KA. Encoded date : UTC 2024-05-30 12:04:27 Writing application : mkvmerge v8.3.0 ('Over the Horizon') 64bit Writing library : libebml v1.3.1 + libmatroska v1.4.2 Video ID : 1 Format : AVC Format/Info : Advanced Video Codec Format profile : High@L4.1 Format settings : CABAC / 5 Ref Frames Format settings, CABAC : Yes Format settings, Reference frames : 5 frames Codec ID : V_MPEG4/ISO/AVC Duration : 1 h 45 min Bit rate : 10.6 Mb/s Width : 1 920 pixels Height : 804 pixels Display aspect ratio : 2.40:1 Frame rate mode : Constant Frame rate : 23.976 (24000/1001) FPS Color space : YUV Chroma subsampling : 4:2:0 Bit depth : 8 bits Scan type : Progressive Bits/(Pixel*Frame) : 0.286 Stream size : 7.84 GiB (84%) Writing library : x264 core 164 r3173 4815cca Encoding settings : cabac=1 / ref=5 / deblock=1:-3:-3 / analyse=0x3:0x133 / me=umh / subme=10 / psy=1 / psy_rd=1.00:0.00 / mixed_ref=1 / me_range=32 / chroma_me=1 / trellis=2 / 8x8dct=1 / cqm=0 / deadzone=21,11 / fast_pskip=0 / chroma_qp_offset=-2 / threads=18 / lookahead_threads=4 / sliced_threads=0 / nr=0 / decimate=0 / interlaced=0 / bluray_compat=0 / constrained_intra=0 / bframes=16 / b_pyramid=2 / b_adapt=2 / b_bias=0 / direct=3 / weightb=1 / open_gop=0 / weightp=2 / keyint=250 / keyint_min=23 / scenecut=40 / intra_refresh=0 / rc_lookahead=250 / rc=crf / mbtree=0 / crf=15.5 / qcomp=0.60 / qpmin=0 / qpmax=69 / qpstep=4 / vbv_maxrate=62500 / vbv_bufsize=78125 / crf_max=0.0 / nal_hrd=none / filler=0 / ip_ratio=1.40 / pb_ratio=1.30 / aq=3:1.00 Default : Yes Forced : No Color range : Limited Color primaries : BT.709 Matrix coefficients : BT.709 Audio #1 ID : 2 Format : AC-3 Format/Info : Audio Coding 3 Commercial name : Dolby Digital Codec ID : A_AC3 Duration : 1 h 45 min Bit rate mode : Constant Bit rate : 384 kb/s Channel(s) : 6 channels Channel layout : L R C LFE Ls Rs Sampling rate : 48.0 kHz Frame rate : 31.250 FPS (1536 SPF) Compression mode : Lossy Stream size : 291 MiB (3%) Title : DUB AC3 (Kiparis) Language : Russian Service kind : Complete Main Default : Yes Forced : Yes Audio #2 ID : 3 Format : E-AC-3 Format/Info : Enhanced AC-3 Commercial name : Dolby Digital Plus Codec ID : A_EAC3 Duration : 1 h 45 min Bit rate mode : Constant Bit rate : 384 kb/s Channel(s) : 6 channels Channel layout : L R C LFE Ls Rs Sampling rate : 48.0 kHz Frame rate : 31.250 FPS (1536 SPF) Compression mode : Lossy Stream size : 291 MiB (3%) Title : DUB EAC3 (Kiparis) Language : Russian Service kind : Complete Main Default : No Forced : No Audio #3 ID : 4 Format : AC-3 Format/Info : Audio Coding 3 Commercial name : Dolby Digital Codec ID : A_AC3 Duration : 1 h 46 min Bit rate mode : Constant Bit rate : 640 kb/s Channel(s) : 6 channels Channel layout : L R C LFE Ls Rs Sampling rate : 48.0 kHz Frame rate : 31.250 FPS (1536 SPF) Compression mode : Lossy Stream size : 485 MiB (5%) Title : DVO (ViruseProject) Language : Russian Service kind : Complete Main Default : No Forced : No Audio #4 ID : 5 Format : AC-3 Format/Info : Audio Coding 3 Commercial name : Dolby Digital Codec ID : A_AC3 Duration : 1 h 45 min Bit rate mode : Constant Bit rate : 640 kb/s Channel(s) : 6 channels Channel layout : L R C LFE Ls Rs Sampling rate : 48.0 kHz Frame rate : 31.250 FPS (1536 SPF) Compression mode : Lossy Stream size : 485 MiB (5%) Title : Original Language : Spanish Service kind : Complete Main Default : No Forced : No Text #1 ID : 6 Format : UTF-8 Codec ID : S_TEXT/UTF8 Codec ID/Info : UTF-8 Plain Text Duration : 1 h 39 min Bit rate : 0 b/s Count of elements : 18 Stream size : 737 Bytes (0%) Title : Forced Language : Russian Default : Yes Forced : Yes Text #2 ID : 7 Format : UTF-8 Codec ID : S_TEXT/UTF8 Codec ID/Info : UTF-8 Plain Text Duration : 1 h 39 min Bit rate : 63 b/s Count of elements : 1149 Stream size : 46.0 KiB (0%) Title : Full Language : Russian Default : No Forced : No Text #3 ID : 8 Format : UTF-8 Codec ID : S_TEXT/UTF8 Codec ID/Info : UTF-8 Plain Text Duration : 1 h 37 min Bit rate : 40 b/s Count of elements : 1022 Stream size : 29.0 KiB (0%) Language : English Default : No Forced : No Text #4 ID : 9 Format : UTF-8 Codec ID : S_TEXT/UTF8 Codec ID/Info : UTF-8 Plain Text Duration : 1 h 39 min Bit rate : 45 b/s Count of elements : 1170 Stream size : 32.9 KiB (0%) Language : Spanish Default : No Forced : No Menu 00:00:00.000 : en:Chapter 01 00:05:52.435 : en:Chapter 02 00:15:44.568 : en:Chapter 03 00:25:21.686 : en:Chapter 04 00:33:02.188 : en:Chapter 05 00:42:10.611 : en:Chapter 06 00:50:24.229 : en:Chapter 07 01:00:58.529 : en:Chapter 08 01:10:25.930 : en:Chapter 09 01:22:07.589 : en:Chapter 10 01:31:06.210 : en:Chapter 11 01:41:02.347 : en:Chapter 12
[+] Скриншоты

Всего файлов в раздаче: 1 
Ugroza.2023.BDRip.1080p.ELEKTRI4KA.mkv9.36 GB

Похожие раздачи по запросу - Угроза
2024-06-10 magnet Звездные войны: Эпизод 1 – Скрытая угроза / Star Wars: Episode I - The Phantom Menace (1999) BDRip-AVC от New-Team | D 2.91 GB ↑ 0 ↓ 0
2024-06-01 magnet Угроза / Todos los nombres de Dios / All the Names of God (2023) BDRip 720p от ELEKTRI4KA | D, P2 5.71 GB ↑ 0 ↓ 0
2024-06-01 magnet Угроза / Все имена Бога / Todos los nombres de Dios / All the Names of God (2023) HDRip-AVC от DoMiNo & селезень | D, P2 1.95 GB ↑ 0 ↓ 0
2024-05-31 magnet Угроза / Todos los nombres de Dios / All the Names of God (2023) BDRip от ELEKTRI4KA | D 1.46 GB ↑ 0 ↓ 0
2024-05-31 magnet Угроза / Todos los nombres de Dios / All the Names of God (2023) BDRemux 1080p от ELEKTRI4KA | D, P2 22.49 GB ↑ 0 ↓ 0
2024-05-08 magnet Скрытая угроза / Contagion of Fear (2024) WEB-DL 1080p | D 3.85 GB ↑ 0 ↓ 1
2024-05-08 magnet Скрытая угроза / Contagion of Fear (2024) WEB-DLRip от New-Team | D 1.46 GB ↑ 0 ↓ 0

Комментарии


Зарегистрируйтесь чтобы добавить комментарий
Торрент клиент
byTorrent - программа для загрузки торрент-файлов.

Скачать byTorrent.exe (1,5 МБ)

Скачать byTorrent.zip (0,6 МБ)

Поддержи torrent.by
российских рублей
(300 российских рублей это 4$)

Обратная связь rss

End game ©