↑↓torrent.by
Поиск
Логин:  Регистрация
Пароль:

Ani Difranco - Unprecedented Sh!T [24-bit Hi-Res] (2024) FLAC

download Скачать торрент-файл   magnet Магнитная ссылка Размер: 413.34 MB Добавлен: 2024-05-31 11:00
Пиры будут получены из сети DHT
Последний сидер был замечен 2024-05-31 15:53
Название: Unprecedented Sh!T Исполнитель: Ani Difranco Год: 2024 Жанр: Alternative, Indie, Punk Издатель (лейбл): Righteous Babe Records Продолжительность: 00:37:52 Формат/Кодек: FLAC Тип рипа: Tracks Битрейт аудио: Lossless Разрядность: 24 Bit/44,1 kHz
[+] Трек-лист 01. Spinning Room (00:02:04) 02. Virus (00:02:12) 03. More Or Less Free (00:02:45) 04. Baby Roe (00:03:07) 05. Unprecedented Sh!T (00:02:51) 06. New Bible (00:05:38) 07. Boots Of A Soldier (00:04:18) 08. You Forgot To Speak (00:04:26) 09. The Thing At Hand (00:04:01) 10. Interlude (00:01:11) 11. The Knowing (00:05:19)
[+] DRM foobar2000 1.5.5 / Замер динамического диапазона (DR) 1.1.1 ------------------------------------------------------------------------------- Анализ: Ani Difranco / Unprecedented Sh!T -------------------------------------------------------------------------------- DR Пики RMS Продолжительность трека -------------------------------------------------------------------------------- DR3 -0.21 дБ -8.95 дБ 2:04 01-Spinning Room DR3 0.00 дБ -6.31 дБ 2:12 02-Virus DR7 -0.07 дБ -9.26 дБ 2:45 03-More Or Less Free DR4 0.00 дБ -8.67 дБ 3:07 04-Baby Roe DR5 -0.08 дБ -6.14 дБ 2:51 05-Unprecedented Sh!T DR6 0.00 дБ -8.50 дБ 5:38 06-New Bible DR9 -0.06 дБ -10.31 дБ 4:18 07-Boots Of A Soldier DR4 0.00 дБ -7.14 дБ 4:26 08-You Forgot To Speak DR6 0.00 дБ -8.54 дБ 4:01 09-The Thing At Hand DR10 -0.13 дБ -12.06 дБ 1:11 10-Interlude DR3 -0.13 дБ -5.82 дБ 5:19 11-The Knowing -------------------------------------------------------------------------------- Количество треков: 11 Реальные значения DR: DR5 Частота: 44100 Гц Каналов: 2 Разрядность: 24 Битрейт: 1547 кбит/с Кодек: FLAC ================================================================================
Время раздачи: 24/7 (минимум до появления первых 3-5 скачавших, на раздачи не возвращаюсь) Первое правило участника файлообмена: "Скачал сам - дай скачать другому!"

Всего файлов в раздаче: 12 
01. Spinning Room.flac20.74 MB
02. Virus.flac25.27 MB
03. More or Less Free.flac29.50 MB
04. Baby Roe.flac36.80 MB
05. Unprecedented Sh!t.flac34.45 MB
06. New Bible.flac59.68 MB
07. Boots of a Soldier.flac45.59 MB
08. You Forgot to Speak.flac49.67 MB
09. The Thing at Hand.flac42.18 MB
10. Interlude.flac10.51 MB
Показать все файлы

Кто качает (только для создателя раздачи и модераторов): Локальные пиры отсутствуют

Комментарии


Зарегистрируйтесь чтобы добавить комментарий
Торрент клиент
byTorrent - программа для загрузки торрент-файлов.

Скачать byTorrent.exe (1,5 МБ)

Скачать byTorrent.zip (0,6 МБ)

Поддержи torrent.by
российских рублей
(300 российских рублей это 4$)

Обратная связь rss

End game ©